  0
SECTION
  2
HEADER
  9
$LIMMAX
 10
1260.000000
 20
891.000000
  9
$LIMMIN
 10
-1260.000000
 20
-891.000000
  9
$EXTMAX
 10
1260.000000
 20
891.000000
  9
$EXTMIN
 10
-1260.000000
 20
-891.000000
  9
$DIMLFAC
 40
1.000000
  9
$DIMALTF
 40
25.400000
  9
$DIMSCALE
 40
6.000000
  9
$DIMTAD
 70
1
  9
$DIMTIH
 70
1
  9
$DIMTOH
 70
1
  9
$TDCREATE
 40
2452597.000000
  9
$TDUPDATE
 40
2452597.000000
999
3106
  0
ENDSEC
  0
SECTION
  2
TABLES
  0
TABLE
  2
LTYPE
 70
7
  0
LTYPE
  2
CONTINUOUS
 70
0
  3
Solid line
 72
65
 73
0
 40
0.000000
  0
LTYPE
  2
DASHED
 70
0
  3
__ __ __ __ __ __ __ __ __ __ __ __ __ __ __
 72
65
 73
2
 40
2.000000
 49
1.200000
 49
-0.800000
  0
LTYPE
  2
CENTER
 70
0
  3
____ _ ____ _ ____ _ ____ _ ____ _ ____ _ ____
 72
65
 73
4
 40
12.000000
 49
9.000000
 49
-1.000000
 49
1.000000
 49
-1.000000
  0
LTYPE
  2
HIDDEN
 70
0
  3
_ _ _ _ _ _ _ _ _ _ _ _ _ _ _ _ _ _ _ _ _ _ _
 72
65
 73
2
 40
3.200000
 49
2.400000
 49
-0.800000
  0
LTYPE
  2
PHANTOM
 70
0
  3
_____ _ _ _____ _ _ _____ _ _ _____ _ _ _____
 72
65
 73
6
 40
13.500000
 49
9.000000
 49
-1.000000
 49
1.000000
 49
-0.500000
 49
1.000000
 49
-1.000000
  0
LTYPE
  2
DOT
 70
0
  3
...............................................
 72
65
 73
2
 40
1.000000
 49
0.500000
 49
-0.500000
  0
LTYPE
  2
DASHDOT
 70
0
  3
__ . __ . __ . __ . __ . __ . __ . __ . __ . __
 72
65
 73
4
 40
8.000000
 49
5.000000
 49
-1.000000
 49
1.000000
 49
-1.000000
  0
ENDTAB
  0
TABLE
  2
LAYER
 70
6
  0
LAYER
  2
0
 70
0
 62
7
  6
CONTINUOUS
  0
LAYER
  2
1
 70
0
 62
7
  6
CONTINUOUS
  0
LAYER
  2
2
 70
0
 62
7
  6
CONTINUOUS
  0
LAYER
  2
5
 70
0
 62
7
  6
CONTINUOUS
  0
LAYER
  2
18
 70
0
 62
7
  6
CONTINUOUS
  0
LAYER
  2
20
 70
0
 62
7
  6
CONTINUOUS
  0
ENDTAB
  0
TABLE
  2
STYLE
 70
1
  0
STYLE
  2
STANDARD
 70
64
 40
0.000000
 41
1.000000
 50
0.000000
 71
0
 42
1.000000
  3
txt
  4
BIGFONT
  0
ENDTAB
  0
ENDSEC
  0
SECTION
  2
BLOCKS
  0
BLOCK
  8
5
  2
*D0
 70
1
 10
0.000000
 20
0.000000
  0
TEXT
  8
5
 10
-753.643819
 20
733.047249
 40
19.800000
  1
223
 50
0.000000
 62
2
 41
1.400000
  0
LINE
  8
5
 62
2
 10
-844.353820
 20
636.383078
 11
-844.353820
 21
736.047249
  0
LINE
  8
5
 62
2
 10
-844.353820
 20
730.047249
 11
-832.762710
 21
726.941420
  0
LINE
  8
5
 62
2
 10
-844.353820
 20
730.047249
 11
-832.762710
 21
733.153077
  0
LINE
  8
5
 62
2
 10
-832.762710
 20
726.941420
 11
-832.762710
 21
733.153077
  0
LINE
  8
5
 62
2
 10
-844.353820
 20
730.047249
 11
-621.353820
 21
730.047249
  0
LINE
  8
5
 62
2
 10
-621.353820
 20
730.047249
 11
-632.944929
 21
733.153077
  0
LINE
  8
5
 62
2
 10
-621.353820
 20
730.047249
 11
-632.944929
 21
726.941420
  0
LINE
  8
5
 62
2
 10
-632.944929
 20
733.153077
 11
-632.944929
 21
726.941420
  0
LINE
  8
5
 62
2
 10
-621.353820
 20
688.631605
 11
-621.353820
 21
736.047249
  0
ENDBLK
  8
5
  0
BLOCK
  8
5
  2
*D1
 70
1
 10
0.000000
 20
0.000000
  0
TEXT
  8
5
 10
-559.643819
 20
733.047249
 40
19.800000
  1
165
 50
0.000000
 62
2
 41
1.400000
  0
LINE
  8
5
 62
2
 10
-621.353820
 20
688.631605
 11
-621.353820
 21
736.047249
  0
LINE
  8
5
 62
2
 10
-621.353820
 20
730.047249
 11
-609.762710
 21
726.941420
  0
LINE
  8
5
 62
2
 10
-621.353820
 20
730.047249
 11
-609.762710
 21
733.153077
  0
LINE
  8
5
 62
2
 10
-609.762710
 20
726.941420
 11
-609.762710
 21
733.153077
  0
LINE
  8
5
 62
2
 10
-621.353820
 20
730.047249
 11
-456.353820
 21
730.047249
  0
LINE
  8
5
 62
2
 10
-456.353820
 20
730.047249
 11
-467.944929
 21
733.153077
  0
LINE
  8
5
 62
2
 10
-456.353820
 20
730.047249
 11
-467.944929
 21
726.941420
  0
LINE
  8
5
 62
2
 10
-467.944929
 20
733.153077
 11
-467.944929
 21
726.941420
  0
LINE
  8
5
 62
2
 10
-456.353820
 20
460.383078
 11
-456.353820
 21
736.047249
  0
ENDBLK
  8
5
  0
BLOCK
  8
5
  2
*D2
 70
1
 10
0.000000
 20
0.000000
  0
TEXT
  8
5
 10
316.865313
 20
47.109473
 40
19.800000
  1
255
 50
90.000000
 62
2
 41
1.400000
  0
LINE
  8
5
 62
2
 10
191.506389
 20
-59.600527
 11
325.865313
 21
-59.600527
  0
LINE
  8
5
 62
2
 10
319.865313
 20
-59.600527
 11
322.971141
 21
-48.009417
  0
LINE
  8
5
 62
2
 10
319.865313
 20
-59.600527
 11
316.759484
 21
-48.009417
  0
LINE
  8
5
 62
2
 10
322.971141
 20
-48.009417
 11
316.759484
 21
-48.009417
  0
LINE
  8
5
 62
2
 10
319.865313
 20
-59.600527
 11
319.865313
 21
195.399473
  0
LINE
  8
5
 62
2
 10
319.865313
 20
195.399473
 11
316.759484
 21
183.808363
  0
LINE
  8
5
 62
2
 10
319.865313
 20
195.399473
 11
322.971141
 21
183.808363
  0
LINE
  8
5
 62
2
 10
316.759484
 20
183.808363
 11
322.971141
 21
183.808363
  0
LINE
  8
5
 62
2
 10
121.506389
 20
195.399473
 11
325.865313
 21
195.399473
  0
ENDBLK
  8
5
  0
BLOCK
  8
5
  2
*D3
 70
1
 10
0.000000
 20
0.000000
  0
TEXT
  8
5
 10
-198.674681
 20
10.679473
 40
19.800000
  1
%%c280
 50
90.000000
 62
2
 41
1.400000
  0
LINE
  8
5
 62
2
 10
-112.993611
 20
178.399473
 11
-201.674681
 21
178.399473
  0
LINE
  8
5
 62
2
 10
-195.674681
 20
178.399473
 11
-198.780509
 21
166.808363
  0
LINE
  8
5
 62
2
 10
-195.674681
 20
178.399473
 11
-192.568852
 21
166.808363
  0
LINE
  8
5
 62
2
 10
-198.780509
 20
166.808363
 11
-192.568852
 21
166.808363
  0
LINE
  8
5
 62
2
 10
-195.674681
 20
178.399473
 11
-195.674681
 21
-101.600527
  0
LINE
  8
5
 62
2
 10
-195.674681
 20
-101.600527
 11
-192.568852
 21
-90.009417
  0
LINE
  8
5
 62
2
 10
-195.674681
 20
-101.600527
 11
-198.780509
 21
-90.009417
  0
LINE
  8
5
 62
2
 10
-192.568852
 20
-90.009417
 11
-198.780509
 21
-90.009417
  0
LINE
  8
5
 62
2
 10
-112.993611
 20
-101.600527
 11
-201.674681
 21
-101.600527
  0
ENDBLK
  8
5
  0
BLOCK
  8
5
  2
*D4
 70
1
 10
0.000000
 20
0.000000
  0
TEXT
  8
5
 10
316.865313
 20
-260.390527
 40
19.800000
  1
360
 50
90.000000
 62
2
 41
1.400000
  0
LINE
  8
5
 62
2
 10
209.170019
 20
-419.600527
 11
325.865313
 21
-419.600527
  0
LINE
  8
5
 62
2
 10
319.865313
 20
-419.600527
 11
322.971141
 21
-408.009417
  0
LINE
  8
5
 62
2
 10
319.865313
 20
-419.600527
 11
316.759484
 21
-408.009417
  0
LINE
  8
5
 62
2
 10
322.971141
 20
-408.009417
 11
316.759484
 21
-408.009417
  0
LINE
  8
5
 62
2
 10
319.865313
 20
-419.600527
 11
319.865313
 21
-59.600527
  0
LINE
  8
5
 62
2
 10
319.865313
 20
-59.600527
 11
316.759484
 21
-71.191637
  0
LINE
  8
5
 62
2
 10
319.865313
 20
-59.600527
 11
322.971141
 21
-71.191637
  0
LINE
  8
5
 62
2
 10
316.759484
 20
-71.191637
 11
322.971141
 21
-71.191637
  0
LINE
  8
5
 62
2
 10
191.506389
 20
-59.600527
 11
325.865313
 21
-59.600527
  0
ENDBLK
  8
5
  0
BLOCK
  8
5
  2
*D5
 70
1
 10
0.000000
 20
0.000000
  0
TEXT
  8
5
 10
316.865313
 20
-600.390527
 40
19.800000
  1
320
 50
90.000000
 62
2
 41
1.400000
  0
LINE
  8
5
 62
2
 10
126.559389
 20
-739.600527
 11
325.865313
 21
-739.600527
  0
LINE
  8
5
 62
2
 10
319.865313
 20
-739.600527
 11
322.971141
 21
-728.009417
  0
LINE
  8
5
 62
2
 10
319.865313
 20
-739.600527
 11
316.759484
 21
-728.009417
  0
LINE
  8
5
 62
2
 10
322.971141
 20
-728.009417
 11
316.759484
 21
-728.009417
  0
LINE
  8
5
 62
2
 10
319.865313
 20
-739.600527
 11
319.865313
 21
-419.600527
  0
LINE
  8
5
 62
2
 10
319.865313
 20
-419.600527
 11
316.759484
 21
-431.191637
  0
LINE
  8
5
 62
2
 10
319.865313
 20
-419.600527
 11
322.971141
 21
-431.191637
  0
LINE
  8
5
 62
2
 10
316.759484
 20
-431.191637
 11
322.971141
 21
-431.191637
  0
LINE
  8
5
 62
2
 10
209.170019
 20
-419.600527
 11
325.865313
 21
-419.600527
  0
ENDBLK
  8
5
  0
BLOCK
  8
5
  2
*D6
 70
1
 10
0.000000
 20
0.000000
  0
TEXT
  8
5
 10
-297.703377
 20
592.593078
 40
19.800000
  1
136
 50
90.000000
 62
2
 41
1.400000
  0
LINE
  8
5
 62
2
 10
-358.682653
 20
545.383078
 11
-288.703377
 21
545.383078
  0
LINE
  8
5
 62
2
 10
-294.703377
 20
545.383078
 11
-291.597548
 21
556.974188
  0
LINE
  8
5
 62
2
 10
-294.703377
 20
545.383078
 11
-297.809205
 21
556.974188
  0
LINE
  8
5
 62
2
 10
-291.597548
 20
556.974188
 11
-297.809205
 21
556.974188
  0
LINE
  8
5
 62
2
 10
-294.703377
 20
545.383078
 11
-294.703377
 21
681.383078
  0
LINE
  8
5
 62
2
 10
-294.703377
 20
681.383078
 11
-297.809205
 21
669.791968
  0
LINE
  8
5
 62
2
 10
-294.703377
 20
681.383078
 11
-291.597548
 21
669.791968
  0
LINE
  8
5
 62
2
 10
-297.809205
 20
669.791968
 11
-291.597548
 21
669.791968
  0
LINE
  8
5
 62
2
 10
-558.436320
 20
681.383078
 11
-288.703377
 21
681.383078
  0
ENDBLK
  8
5
  0
BLOCK
  8
5
  2
*D7
 70
1
 10
0.000000
 20
0.000000
  0
TEXT
  8
5
 10
-297.703377
 20
387.983079
 40
19.800000
  1
245.5
 50
90.000000
 62
2
 41
1.400000
  0
LINE
  8
5
 62
2
 10
-516.853820
 20
299.883078
 11
-288.703377
 21
299.883078
  0
LINE
  8
5
 62
2
 10
-294.703377
 20
299.883078
 11
-291.597548
 21
311.474188
  0
LINE
  8
5
 62
2
 10
-294.703377
 20
299.883078
 11
-297.809205
 21
311.474188
  0
LINE
  8
5
 62
2
 10
-291.597548
 20
311.474188
 11
-297.809205
 21
311.474188
  0
LINE
  8
5
 62
2
 10
-294.703377
 20
299.883078
 11
-294.703377
 21
545.383078
  0
LINE
  8
5
 62
2
 10
-294.703377
 20
545.383078
 11
-297.809205
 21
533.791968
  0
LINE
  8
5
 62
2
 10
-294.703377
 20
545.383078
 11
-291.597548
 21
533.791968
  0
LINE
  8
5
 62
2
 10
-297.809205
 20
533.791968
 11
-291.597548
 21
533.791968
  0
LINE
  8
5
 62
2
 10
-358.682653
 20
545.383078
 11
-288.703377
 21
545.383078
  0
ENDBLK
  8
5
  0
BLOCK
  8
5
  2
*D8
 70
1
 10
0.000000
 20
0.000000
  0
TEXT
  8
5
 10
101.646389
 20
-788.397217
 40
19.800000
  1
92
 50
0.000000
 62
2
 41
1.400000
  0
LINE
  8
5
 62
2
 10
69.506389
 20
-633.189770
 11
69.506389
 21
-797.397217
  0
LINE
  8
5
 62
2
 10
69.506389
 20
-791.397217
 11
81.097499
 21
-794.503045
  0
LINE
  8
5
 62
2
 10
69.506389
 20
-791.397217
 11
81.097499
 21
-788.291388
  0
LINE
  8
5
 62
2
 10
81.097499
 20
-794.503045
 11
81.097499
 21
-788.291388
  0
LINE
  8
5
 62
2
 10
69.506389
 20
-791.397217
 11
161.506389
 21
-791.397217
  0
LINE
  8
5
 62
2
 10
161.506389
 20
-791.397217
 11
149.915279
 21
-788.291388
  0
LINE
  8
5
 62
2
 10
161.506389
 20
-791.397217
 11
149.915279
 21
-794.503045
  0
LINE
  8
5
 62
2
 10
149.915279
 20
-788.291388
 11
149.915279
 21
-794.503045
  0
LINE
  8
5
 62
2
 10
161.506389
 20
-633.189770
 11
161.506389
 21
-797.397217
  0
ENDBLK
  8
5
  0
ENDSEC
  0
SECTION
  2
ENTITIES
  0
LINE
  8
1
  6
CENTER
 62
2
 10
-880.152861
 20
545.383078
 11
-364.682653
 21
545.383078
  0
LINE
  8
1
  6
CENTER
 62
2
 10
-348.128138
 20
-419.600527
 11
-898.976435
 21
-419.600527
  0
LINE
  8
1
  6
CENTER
 62
2
 10
-621.353820
 20
-752.733849
 11
-621.353820
 21
207.796846
  0
LINE
  8
1
  6
CENTER
 62
2
 10
203.170019
 20
-419.600527
 11
26.757925
 21
-419.600527
  0
LINE
  8
1
  6
CENTER
 62
2
 10
115.506389
 20
-752.733849
 11
115.506389
 21
207.796846
  0
LINE
  8
1
  6
DASHED
 10
-683.853820
 20
515.283078
 11
-683.853820
 21
575.483078
  0
LINE
  8
1
  6
DASHED
 10
-558.853820
 20
515.283078
 11
-558.853820
 21
575.483078
  0
LINE
  8
1
  6
DASHED
 10
-651.453820
 20
607.883078
 11
-591.253820
 21
607.883078
  0
LINE
  8
1
  6
DASHED
 10
-651.453820
 20
482.883078
 11
-591.253820
 21
482.883078
  0
ARC
  8
1
  6
DASHED
 10
-651.453820
 20
575.483078
 40
32.400000
 50
90.000000
 51
180.000000
  0
ARC
  8
1
  6
DASHED
 10
-651.453820
 20
515.283078
 40
32.400000
 50
180.000000
 51
270.000000
  0
ARC
  8
1
  6
DASHED
 10
-591.253820
 20
515.283078
 40
32.400000
 50
270.000000
 51
360.000000
  0
ARC
  8
1
  6
DASHED
 10
-591.253820
 20
575.483078
 40
32.400000
 50
360.000000
 51
90.000000
  0
LINE
  8
1
  6
CENTER
 62
2
 10
-577.153820
 20
573.578299
 11
-577.153820
 21
606.467886
  0
LINE
  8
1
  6
CENTER
 62
2
 10
-593.238304
 20
589.583078
 11
-560.363228
 21
589.583078
  0
CIRCLE
  8
1
  6
DASHED
 10
-577.153820
 20
589.583078
 40
7.000000
  0
LINE
  8
1
  6
CENTER
 62
2
 10
-577.153820
 20
517.187857
 11
-577.153820
 21
484.298270
  0
LINE
  8
1
  6
CENTER
 62
2
 10
-593.238304
 20
501.183078
 11
-560.363228
 21
501.183078
  0
CIRCLE
  8
1
  6
DASHED
 10
-577.153820
 20
501.183078
 40
7.000000
  0
LINE
  8
1
  6
CENTER
 62
2
 10
-665.553820
 20
573.578299
 11
-665.553820
 21
606.467886
  0
LINE
  8
1
  6
CENTER
 62
2
 10
-649.469335
 20
589.583078
 11
-682.344411
 21
589.583078
  0
CIRCLE
  8
1
  6
DASHED
 10
-665.553820
 20
589.583078
 40
7.000000
  0
LINE
  8
1
  6
CENTER
 62
2
 10
-665.553820
 20
517.187857
 11
-665.553820
 21
484.298270
  0
LINE
  8
1
  6
CENTER
 62
2
 10
-649.469335
 20
501.183078
 11
-682.344411
 21
501.183078
  0
CIRCLE
  8
1
  6
DASHED
 10
-665.553820
 20
501.183078
 40
7.000000
  0
LINE
  8
1
  6
DASHED
 10
-831.039373
 20
551.383078
 11
-828.943062
 21
591.383078
  0
LINE
  8
1
  6
DASHED
 10
-831.039373
 20
539.383078
 11
-828.943062
 21
499.383078
  0
LINE
  8
1
  6
DASHED
 10
-828.943062
 20
591.383078
 11
-679.684122
 21
591.383078
  0
LINE
  8
1
  6
DASHED
 10
-828.943062
 20
499.383078
 11
-679.684122
 21
499.383078
  0
LINE
  8
1
  6
DASHED
 10
-838.039373
 20
551.383078
 11
-837.192620
 21
567.540086
  0
LINE
  8
1
  6
DASHED
 10
-838.039373
 20
539.383078
 11
-837.192620
 21
523.226070
  0
LINE
  8
1
  6
DASHED
 10
-834.196731
 20
570.383078
 11
-832.890519
 21
570.383078
  0
LINE
  8
1
  6
DASHED
 10
-834.196731
 20
520.383078
 11
-832.890519
 21
520.383078
  0
ARC
  8
1
  6
DASHED
 10
-832.890519
 20
573.383078
 40
3.000000
 50
270.000000
 51
357.000000
  0
ARC
  8
1
  6
DASHED
 10
-832.890519
 20
517.383078
 40
3.000000
 50
3.000000
 51
90.000000
  0
ARC
  8
1
  6
DASHED
 10
-834.196731
 20
567.383078
 40
3.000000
 50
90.000000
 51
177.000000
  0
ARC
  8
1
  6
DASHED
 10
-834.196731
 20
523.383078
 40
3.000000
 50
183.000000
 51
270.000000
  0
CIRCLE
  8
1
 10
-621.353820
 20
-419.600527
 40
207.589242
  0
LINE
  8
1
 10
-591.353820
 20
-699.600527
 11
-651.353820
 21
-699.600527
  0
LINE
  8
1
 10
-604.118818
 20
-75.600527
 11
-680.853820
 21
-75.600527
  0
LINE
  8
1
 10
-683.853820
 20
-72.600527
 11
-683.853820
 21
-61.600527
  0
LINE
  8
1
 10
-558.853820
 20
-61.600527
 11
-558.853820
 21
-69.767066
  0
ARC
  8
1
 10
-680.853820
 20
-72.600527
 40
3.000000
 50
180.000000
 51
270.000000
  0
LINE
  8
1
 10
-560.853820
 20
-59.600527
 11
-558.853820
 21
-61.600527
  0
LINE
  8
1
 10
-681.853820
 20
-59.600527
 11
-683.853820
 21
-61.600527
  0
LINE
  8
1
 10
-653.853820
 20
-174.743317
 11
-653.853820
 21
-85.600527
  0
LINE
  8
1
 10
-588.853820
 20
-174.743317
 11
-588.853820
 21
-85.600527
  0
ARC
  8
1
 10
-663.853820
 20
-85.600527
 40
10.000000
 50
0.000000
 51
90.000000
  0
ARC
  8
1
 10
-578.853820
 20
-85.600527
 40
10.000000
 50
176.984816
 51
180.000000
  0
LINE
  8
1
 10
-658.853820
 20
-136.937410
 11
-658.853820
 21
-95.600527
  0
LINE
  8
1
 10
-583.853820
 20
-136.937410
 11
-583.853820
 21
-95.600527
  0
ARC
  8
1
 10
-563.853820
 20
-95.600527
 40
20.000000
 50
158.516013
 51
180.000000
  0
ARC
  8
1
 10
-678.853820
 20
-95.600527
 40
20.000000
 50
0.000000
 51
90.000000
  0
ARC
  8
1
 10
-650.853820
 20
-151.600527
 40
3.000000
 50
90.000000
 51
180.000000
  0
ARC
  8
1
 10
-591.853820
 20
-151.600527
 40
3.000000
 50
0.000000
 51
90.000000
  0
LINE
  8
1
 10
-627.353820
 20
-142.600527
 11
-627.353820
 21
-81.600527
  0
LINE
  8
1
 10
-615.353820
 20
-142.600527
 11
-615.353820
 21
-81.600527
  0
LINE
  8
1
 10
-650.853820
 20
-148.600527
 11
-633.353820
 21
-148.600527
  0
LINE
  8
1
 10
-609.353820
 20
-148.600527
 11
-591.853820
 21
-148.600527
  0
ARC
  8
1
 10
-609.353820
 20
-81.600527
 40
6.000000
 50
90.000000
 51
180.000000
  0
ARC
  8
1
 10
-633.353820
 20
-81.600527
 40
6.000000
 50
0.000000
 51
90.000000
  0
ARC
  8
1
 10
-609.353820
 20
-142.600527
 40
6.000000
 50
180.000000
 51
270.000000
  0
ARC
  8
1
 10
-633.353820
 20
-142.600527
 40
6.000000
 50
270.000000
 51
0.000000
  0
LINE
  8
1
 10
-674.353820
 20
-165.008924
 11
-674.353820
 21
-154.902508
  0
LINE
  8
1
 10
-568.353820
 20
-165.008924
 11
-568.353820
 21
-154.902508
  0
LINE
  8
1
 10
-672.130277
 20
-152.004731
 11
-669.971534
 21
-151.426297
  0
LINE
  8
1
 10
-570.577362
 20
-152.004731
 11
-572.736105
 21
-151.426297
  0
ARC
  8
1
 10
-571.353820
 20
-154.902508
 40
3.000000
 50
0.000000
 51
75.000000
  0
ARC
  8
1
 10
-671.353820
 20
-154.902508
 40
3.000000
 50
105.000000
 51
180.000000
  0
ARC
  8
1
 10
-568.853820
 20
-136.937410
 40
15.000000
 50
180.000000
 51
255.000000
  0
ARC
  8
1
 10
-673.853820
 20
-136.937410
 40
15.000000
 50
285.000000
 51
360.000000
  0
LINE
  8
1
 10
-652.353820
 20
-203.852933
 11
-652.353820
 21
-184.348003
  0
LINE
  8
1
 10
-590.353820
 20
-203.852933
 11
-590.353820
 21
-184.348003
  0
LINE
  8
1
 10
-557.554408
 20
-215.529099
 11
-537.463404
 21
-204.022873
  0
LINE
  8
1
 10
-685.153232
 20
-215.529099
 11
-705.244235
 21
-204.022873
  0
ARC
  8
1
 10
-563.766582
 20
-204.682031
 40
12.500000
 50
255.000000
 51
299.800000
  0
ARC
  8
1
 10
-678.941057
 20
-204.682031
 40
12.500000
 50
240.200000
 51
285.000000
  0
LINE
  8
1
 10
-530.150726
 20
-202.978869
 11
-507.182350
 21
-208.514292
  0
LINE
  8
1
 10
-712.556913
 20
-202.978869
 11
-735.525289
 21
-208.514292
  0
LINE
  8
1
 10
-503.671988
 20
-215.130244
 11
-509.349136
 21
-230.274165
  0
LINE
  8
1
 10
-739.035651
 20
-215.130244
 11
-733.358503
 21
-230.274165
  0
ARC
  8
1
 10
-497.644559
 20
-234.661973
 40
12.500000
 50
159.450000
 51
236.220609
  0
ARC
  8
1
 10
-745.063080
 20
-234.661973
 40
12.500000
 50
303.779391
 51
20.550000
  0
ARC
  8
1
 10
-508.353820
 20
-213.375121
 40
5.000000
 50
339.450000
 51
76.450000
  0
ARC
  8
1
 10
-532.493664
 20
-212.700527
 40
10.000000
 50
76.450000
 51
119.800000
  0
ARC
  8
1
 10
-710.213975
 20
-212.700527
 40
10.000000
 50
60.200000
 51
103.550000
  0
ARC
  8
1
 10
-734.353820
 20
-213.375121
 40
5.000000
 50
103.550000
 51
200.550000
  0
LINE
  8
1
 10
-652.353820
 20
-637.806852
 11
-652.353820
 21
-654.853051
  0
LINE
  8
1
 10
-590.353820
 20
-637.806852
 11
-590.353820
 21
-654.853051
  0
LINE
  8
1
 10
-557.554408
 20
-623.671956
 11
-537.463404
 21
-635.178182
  0
LINE
  8
1
 10
-685.153232
 20
-623.671956
 11
-705.244235
 21
-635.178182
  0
ARC
  8
1
 10
-563.766582
 20
-634.519024
 40
12.500000
 50
60.200000
 51
105.000000
  0
ARC
  8
1
 10
-678.941057
 20
-634.519024
 40
12.500000
 50
75.000000
 51
119.800000
  0
LINE
  8
1
 10
-530.150726
 20
-636.222186
 11
-507.182350
 21
-630.686763
  0
LINE
  8
1
 10
-712.556913
 20
-636.222186
 11
-735.525289
 21
-630.686763
  0
LINE
  8
1
 10
-503.671988
 20
-624.070811
 11
-509.349136
 21
-608.926890
  0
LINE
  8
1
 10
-739.035651
 20
-624.070811
 11
-733.358503
 21
-608.926890
  0
ARC
  8
1
 10
-497.644559
 20
-604.539081
 40
12.500000
 50
123.779391
 51
200.550000
  0
ARC
  8
1
 10
-745.063080
 20
-604.539081
 40
12.500000
 50
339.450000
 51
56.220609
  0
ARC
  8
1
 10
-508.353820
 20
-625.825934
 40
5.000000
 50
283.550000
 51
20.550000
  0
ARC
  8
1
 10
-532.493664
 20
-626.500527
 40
10.000000
 50
240.200000
 51
283.550000
  0
ARC
  8
1
 10
-710.213975
 20
-626.500527
 40
10.000000
 50
256.450000
 51
299.800000
  0
ARC
  8
1
 10
-734.353820
 20
-625.825934
 40
5.000000
 50
159.450000
 51
256.450000
  0
ARC
  8
1
 10
-577.853820
 20
-201.394203
 40
12.500000
 50
180.000000
 51
258.725738
  0
ARC
  8
1
 10
-664.853820
 20
-201.394203
 40
12.500000
 50
281.274262
 51
360.000000
  0
ARC
  8
1
 10
-573.853820
 20
-184.348003
 40
16.500000
 50
82.634114
 51
180.000000
  0
ARC
  8
1
 10
-668.853820
 20
-184.348003
 40
16.500000
 50
0.000000
 51
97.365886
  0
ARC
  8
1
 10
-571.353820
 20
-165.008924
 40
3.000000
 50
262.634114
 51
360.000000
  0
ARC
  8
1
 10
-671.353820
 20
-165.008924
 40
3.000000
 50
180.000000
 51
277.365886
  0
ARC
  8
1
 10
-603.853820
 20
-174.743317
 40
15.000000
 50
342.247210
 51
360.000000
  0
ARC
  8
1
 10
-638.853820
 20
-174.743317
 40
15.000000
 50
180.000000
 51
197.752790
  0
ARC
  8
1
 10
-577.853820
 20
-203.852933
 40
12.500000
 50
180.000000
 51
258.600599
  0
ARC
  8
1
 10
-664.853820
 20
-203.852933
 40
12.500000
 50
281.399401
 51
360.000000
  0
LINE
  8
1
  6
CENTER
 62
2
 10
-577.153820
 20
-36.933815
 11
-577.153820
 21
-95.867741
  0
LINE
  8
1
  6
CENTER
 62
2
 10
-665.553820
 20
-36.933815
 11
-665.553820
 21
-95.867741
  0
LINE
  8
1
 10
-651.353820
 20
-697.600527
 11
-651.353820
 21
-635.547337
  0
LINE
  8
1
 10
-591.353820
 20
-697.600527
 11
-591.353820
 21
-635.547337
  0
LINE
  8
1
 10
-593.353820
 20
-699.600527
 11
-591.353820
 21
-697.600527
  0
LINE
  8
1
 10
-649.353820
 20
-699.600527
 11
-651.353820
 21
-697.600527
  0
LINE
  8
1
 10
-591.353820
 20
-697.600527
 11
-651.353820
 21
-697.600527
  0
ARC
  8
1
 10
-578.853820
 20
-635.547337
 40
12.500000
 50
101.133956
 51
180.000000
  0
ARC
  8
1
 10
-663.853820
 20
-635.547337
 40
12.500000
 50
0.000000
 51
78.866044
  0
ARC
  8
1
 10
-577.853820
 20
-637.806852
 40
12.500000
 50
101.274262
 51
180.000000
  0
ARC
  8
1
 10
-664.853820
 20
-637.806852
 40
12.500000
 50
0.000000
 51
78.725738
  0
LINE
  8
1
 10
-668.353820
 20
-681.600527
 11
-668.353820
 21
-674.036377
  0
LINE
  8
1
 10
-574.353820
 20
-681.600527
 11
-574.353820
 21
-674.036377
  0
ARC
  8
1
 10
-573.853820
 20
-654.853051
 40
16.500000
 50
180.000000
 51
259.660109
  0
ARC
  8
1
 10
-668.853820
 20
-654.853051
 40
16.500000
 50
280.339891
 51
360.000000
  0
ARC
  8
1
 10
-578.853820
 20
-638.003824
 40
12.500000
 50
101.011805
 51
180.000000
  0
ARC
  8
1
 10
-663.853820
 20
-638.003824
 40
12.500000
 50
0.000000
 51
78.988195
  0
LINE
  8
1
 10
-663.353820
 20
-686.600527
 11
-661.353820
 21
-686.600527
  0
LINE
  8
1
 10
-581.353820
 20
-686.600527
 11
-579.353820
 21
-686.600527
  0
ARC
  8
1
 10
-577.353820
 20
-674.036377
 40
3.000000
 50
0.000000
 51
79.660109
  0
ARC
  8
1
 10
-665.353820
 20
-674.036377
 40
3.000000
 50
100.339891
 51
180.000000
  0
ARC
  8
1
 10
-579.353820
 20
-681.600527
 40
5.000000
 50
270.000000
 51
360.000000
  0
ARC
  8
1
 10
-663.353820
 20
-681.600527
 40
5.000000
 50
180.000000
 51
270.000000
  0
ARC
  8
1
 10
-581.353820
 20
-696.600527
 40
10.000000
 50
90.000000
 51
180.000000
  0
ARC
  8
1
 10
-661.353820
 20
-696.600527
 40
10.000000
 50
0.000000
 51
90.000000
  0
LINE
  8
1
 10
-837.043625
 20
-407.600527
 11
-837.043625
 21
-431.600527
  0
LINE
  8
1
 10
-838.353820
 20
-431.600527
 11
-838.353820
 21
-407.600527
  0
LINE
  8
1
 10
-832.127429
 20
-404.600527
 11
-835.353820
 21
-404.600527
  0
LINE
  8
1
 10
-832.127429
 20
-434.600527
 11
-835.353820
 21
-434.600527
  0
ARC
  8
1
 10
-621.353820
 20
-419.600527
 40
208.540811
 50
175.875246
 51
184.124754
  0
ARC
  8
1
 10
-832.127429
 20
-401.600527
 40
3.000000
 50
270.000000
 51
355.118802
  0
ARC
  8
1
 10
-832.127429
 20
-437.600527
 40
3.000000
 50
4.881198
 51
90.000000
  0
ARC
  8
1
 10
-621.353820
 20
-419.600527
 40
210.000000
 50
101.274262
 51
175.152322
  0
ARC
  8
1
 10
-621.353820
 20
-419.600527
 40
210.000000
 50
184.847678
 51
258.988195
  0
ARC
  8
1
 10
-834.043625
 20
-407.600527
 40
3.000000
 50
90.000000
 51
180.000000
  0
ARC
  8
1
 10
-835.353820
 20
-407.600527
 40
3.000000
 50
90.000000
 51
180.000000
  0
ARC
  8
1
 10
-834.043625
 20
-431.600527
 40
3.000000
 50
180.000000
 51
270.000000
  0
ARC
  8
1
 10
-835.353820
 20
-431.600527
 40
3.000000
 50
180.000000
 51
270.000000
  0
ARC
  8
1
 10
-833.591893
 20
-401.600527
 40
3.000000
 50
270.000000
 51
355.152322
  0
ARC
  8
1
 10
-833.591893
 20
-437.600527
 40
3.000000
 50
4.847678
 51
90.000000
  0
LINE
  8
1
 10
-405.664014
 20
-407.600527
 11
-405.664014
 21
-431.600527
  0
LINE
  8
1
 10
-404.353820
 20
-431.600527
 11
-404.353820
 21
-407.600527
  0
LINE
  8
1
 10
-410.580210
 20
-404.600527
 11
-407.353820
 21
-404.600527
  0
LINE
  8
1
 10
-410.580210
 20
-434.600527
 11
-407.353820
 21
-434.600527
  0
ARC
  8
1
 10
-621.353820
 20
-419.600527
 40
208.540811
 50
355.875246
 51
4.124754
  0
ARC
  8
1
 10
-410.580210
 20
-401.600527
 40
3.000000
 50
184.881198
 51
270.000000
  0
ARC
  8
1
 10
-410.580210
 20
-437.600527
 40
3.000000
 50
90.000000
 51
175.118802
  0
ARC
  8
1
 10
-408.664014
 20
-407.600527
 40
3.000000
 50
0.000000
 51
90.000000
  0
ARC
  8
1
 10
-407.353820
 20
-407.600527
 40
3.000000
 50
0.000000
 51
90.000000
  0
ARC
  8
1
 10
-408.664014
 20
-431.600527
 40
3.000000
 50
270.000000
 51
360.000000
  0
ARC
  8
1
 10
-407.353820
 20
-431.600527
 40
3.000000
 50
270.000000
 51
360.000000
  0
ARC
  8
1
 10
-409.115746
 20
-401.600527
 40
3.000000
 50
184.847678
 51
270.000000
  0
ARC
  8
1
 10
-409.115746
 20
-437.600527
 40
3.000000
 50
90.000000
 51
175.152322
  0
ARC
  8
1
 10
-621.353820
 20
-419.600527
 40
210.000000
 50
281.011805
 51
355.152322
  0
ARC
  8
1
 10
-621.353820
 20
-419.600527
 40
210.000000
 50
4.847678
 51
78.725738
  0
LINE
  8
1
 10
-391.353820
 20
-337.587260
 11
-391.353820
 21
-329.182183
  0
LINE
  8
1
 10
-395.918041
 20
-324.201210
 11
-420.602229
 21
-322.041623
  0
LINE
  8
1
 10
-411.934563
 20
-350.787945
 11
-394.154124
 21
-342.077398
  0
ARC
  8
1
 10
-417.987557
 20
-292.155782
 40
30.000000
 50
212.074383
 51
265.000000
  0
ARC
  8
1
 10
-396.353820
 20
-329.182183
 40
5.000000
 50
360.000000
 51
85.000000
  0
ARC
  8
1
 10
-396.353820
 20
-337.587260
 40
5.000000
 50
296.100000
 51
0.000000
  0
ARC
  8
1
 10
-406.435323
 20
-362.013290
 40
12.500000
 50
116.100000
 51
195.000000
  0
LINE
  8
1
 10
-391.353820
 20
-501.613795
 11
-391.353820
 21
-510.018871
  0
LINE
  8
1
 10
-395.918041
 20
-514.999845
 11
-420.602229
 21
-517.159432
  0
LINE
  8
1
 10
-411.934563
 20
-488.413110
 11
-394.154124
 21
-497.123657
  0
ARC
  8
1
 10
-417.987557
 20
-547.045273
 40
30.000000
 50
95.000000
 51
147.925617
  0
ARC
  8
1
 10
-396.353820
 20
-510.018871
 40
5.000000
 50
275.000000
 51
0.000000
  0
ARC
  8
1
 10
-396.353820
 20
-501.613795
 40
5.000000
 50
360.000000
 51
63.900000
  0
ARC
  8
1
 10
-406.435323
 20
-477.187765
 40
12.500000
 50
165.000000
 51
243.900000
  0
LINE
  8
1
 10
-851.353820
 20
-337.587260
 11
-851.353820
 21
-329.182183
  0
LINE
  8
1
 10
-846.789598
 20
-324.201210
 11
-822.105410
 21
-322.041623
  0
LINE
  8
1
 10
-830.773076
 20
-350.787945
 11
-848.553515
 21
-342.077398
  0
ARC
  8
1
 10
-824.720083
 20
-292.155782
 40
30.000000
 50
275.000000
 51
327.925617
  0
ARC
  8
1
 10
-846.353820
 20
-329.182183
 40
5.000000
 50
95.000000
 51
180.000000
  0
ARC
  8
1
 10
-846.353820
 20
-337.587260
 40
5.000000
 50
180.000000
 51
243.900000
  0
ARC
  8
1
 10
-836.272316
 20
-362.013290
 40
12.500000
 50
345.000000
 51
63.900000
  0
LINE
  8
1
 10
-851.353820
 20
-501.613795
 11
-851.353820
 21
-510.018871
  0
LINE
  8
1
 10
-846.789598
 20
-514.999845
 11
-822.105410
 21
-517.159432
  0
LINE
  8
1
 10
-830.773076
 20
-488.413110
 11
-848.553515
 21
-497.123657
  0
ARC
  8
1
 10
-824.720083
 20
-547.045273
 40
30.000000
 50
32.074383
 51
85.000000
  0
ARC
  8
1
 10
-846.353820
 20
-510.018871
 40
5.000000
 50
180.000000
 51
265.000000
  0
ARC
  8
1
 10
-846.353820
 20
-501.613795
 40
5.000000
 50
116.100000
 51
180.000000
  0
ARC
  8
1
 10
-836.272316
 20
-477.187765
 40
12.500000
 50
296.100000
 51
15.000000
  0
LINE
  8
1
 10
-617.353820
 20
-95.600527
 11
-625.353820
 21
-95.600527
  0
CIRCLE
  8
1
 10
-621.353820
 20
-419.600527
 40
188.500000
  0
LINE
  8
1
  6
DASHED
 10
-739.353820
 20
542.383078
 11
-739.353820
 21
548.383078
  0
LINE
  8
1
  6
DASHED
 10
-708.693108
 20
542.383078
 11
-708.693108
 21
548.383078
  0
LINE
  8
1
  6
DASHED
 10
-736.353820
 20
551.383078
 11
-683.853820
 21
551.383078
  0
LINE
  8
1
  6
DASHED
 10
-736.353820
 20
539.383078
 11
-683.853820
 21
539.383078
  0
ARC
  8
1
  6
DASHED
 10
-736.353820
 20
548.383078
 40
3.000000
 50
90.000000
 51
180.000000
  0
ARC
  8
1
  6
DASHED
 10
-736.353820
 20
542.383078
 40
3.000000
 50
180.000000
 51
270.000000
  0
ARC
  8
1
  6
DASHED
 10
-711.693108
 20
548.383078
 40
3.000000
 50
0.000000
 51
90.000000
  0
ARC
  8
1
  6
DASHED
 10
-711.693108
 20
542.383078
 40
3.000000
 50
270.000000
 51
360.000000
  0
LINE
  8
1
 10
-851.353820
 20
542.383078
 11
-851.353820
 21
548.383078
  0
LINE
  8
1
  6
DASHED
 10
-799.299300
 20
539.383078
 11
-799.299300
 21
551.383078
  0
ARC
  8
1
  6
DASHED
 10
-802.299300
 20
554.383078
 40
3.000000
 50
270.000000
 51
360.000000
  0
ARC
  8
1
  6
DASHED
 10
-802.299300
 20
536.383078
 40
3.000000
 50
0.000000
 51
90.000000
  0
ARC
  8
1
 10
-848.353820
 20
548.383078
 40
3.000000
 50
90.000000
 51
180.000000
  0
ARC
  8
1
 10
-848.353820
 20
542.383078
 40
3.000000
 50
180.000000
 51
270.000000
  0
LINE
  8
1
 10
-411.668266
 20
551.383078
 11
-413.764577
 21
591.383078
  0
LINE
  8
1
 10
-411.668266
 20
539.383078
 11
-413.764577
 21
499.383078
  0
LINE
  8
1
 10
-404.668266
 20
551.383078
 11
-405.515019
 21
567.540086
  0
LINE
  8
1
 10
-404.668266
 20
539.383078
 11
-405.515019
 21
523.226070
  0
LINE
  8
1
 10
-408.510908
 20
570.383078
 11
-409.817120
 21
570.383078
  0
LINE
  8
1
 10
-408.510908
 20
520.383078
 11
-409.817120
 21
520.383078
  0
ARC
  8
1
 10
-409.817120
 20
573.383078
 40
3.000000
 50
183.000000
 51
270.000000
  0
ARC
  8
1
 10
-409.817120
 20
517.383078
 40
3.000000
 50
90.000000
 51
177.000000
  0
ARC
  8
1
 10
-408.510908
 20
567.383078
 40
3.000000
 50
3.000000
 51
90.000000
  0
ARC
  8
1
 10
-408.510908
 20
523.383078
 40
3.000000
 50
270.000000
 51
357.000000
  0
LINE
  8
1
  6
DASHED
 10
-503.353820
 20
542.383078
 11
-503.353820
 21
548.383078
  0
LINE
  8
1
  6
DASHED
 10
-534.014531
 20
542.383078
 11
-534.014531
 21
548.383078
  0
LINE
  8
1
  6
DASHED
 10
-506.353820
 20
551.383078
 11
-558.853820
 21
551.383078
  0
LINE
  8
1
  6
DASHED
 10
-506.353820
 20
539.383078
 11
-558.853820
 21
539.383078
  0
ARC
  8
1
  6
DASHED
 10
-506.353820
 20
548.383078
 40
3.000000
 50
0.000000
 51
90.000000
  0
ARC
  8
1
  6
DASHED
 10
-506.353820
 20
542.383078
 40
3.000000
 50
270.000000
 51
360.000000
  0
ARC
  8
1
  6
DASHED
 10
-531.014531
 20
548.383078
 40
3.000000
 50
90.000000
 51
180.000000
  0
ARC
  8
1
  6
DASHED
 10
-531.014531
 20
542.383078
 40
3.000000
 50
180.000000
 51
270.000000
  0
LINE
  8
1
 10
-391.353820
 20
542.383078
 11
-391.353820
 21
548.383078
  0
LINE
  8
1
 10
-443.408339
 20
539.383078
 11
-443.408339
 21
551.383078
  0
LINE
  8
1
 10
-394.353820
 20
551.383078
 11
-440.408339
 21
551.383078
  0
LINE
  8
1
 10
-394.353820
 20
539.383078
 11
-440.408339
 21
539.383078
  0
ARC
  8
1
 10
-440.408339
 20
554.383078
 40
3.000000
 50
180.000000
 51
270.000000
  0
ARC
  8
1
 10
-440.408339
 20
536.383078
 40
3.000000
 50
90.000000
 51
180.000000
  0
ARC
  8
1
 10
-394.353820
 20
548.383078
 40
3.000000
 50
0.000000
 51
90.000000
  0
ARC
  8
1
 10
-394.353820
 20
542.383078
 40
3.000000
 50
270.000000
 51
360.000000
  0
LINE
  8
1
 10
175.006389
 20
-75.600527
 11
56.006389
 21
-75.600527
  0
LINE
  8
1
 10
53.006389
 20
-72.600527
 11
53.006389
 21
-61.600527
  0
LINE
  8
1
 10
178.006389
 20
-72.600527
 11
178.006389
 21
-61.600527
  0
ARC
  8
1
 10
56.006389
 20
-72.600527
 40
3.000000
 50
180.000000
 51
270.000000
  0
ARC
  8
1
 10
175.006389
 20
-72.600527
 40
3.000000
 50
270.000000
 51
360.000000
  0
LINE
  8
1
 10
176.006389
 20
-59.600527
 11
178.006389
 21
-61.600527
  0
LINE
  8
1
 10
55.006389
 20
-59.600527
 11
53.006389
 21
-61.600527
  0
LINE
  8
1
 10
178.006389
 20
-61.600527
 11
53.006389
 21
-61.600527
  0
LINE
  8
1
  6
CENTER
 62
2
 10
159.706389
 20
-36.933815
 11
159.706389
 21
-95.867741
  0
LINE
  8
1
  6
CENTER
 62
2
 10
71.306389
 20
-36.933815
 11
71.306389
 21
-95.867741
  0
LINE
  8
1
 10
157.744709
 20
-211.814144
 11
161.506389
 21
-212.011285
  0
LINE
  8
1
 10
73.268069
 20
-211.814144
 11
69.506389
 21
-212.011285
  0
LINE
  8
1
 10
161.506389
 20
-212.011285
 11
161.506389
 21
-627.189770
  0
LINE
  8
1
 10
157.744709
 20
-627.386911
 11
161.506389
 21
-627.189770
  0
LINE
  8
1
 10
73.268069
 20
-627.386911
 11
69.506389
 21
-627.189770
  0
LINE
  8
1
 10
69.506389
 20
-627.189770
 11
69.506389
 21
-212.011285
  0
LINE
  8
1
 10
78.006389
 20
-210.830734
 11
78.006389
 21
-95.600527
  0
LINE
  8
1
 10
153.006389
 20
-210.830734
 11
153.006389
 21
-95.600527
  0
LINE
  8
1
 10
148.006389
 20
-145.684448
 11
148.006389
 21
-85.600527
  0
LINE
  8
1
 10
83.006389
 20
-145.684448
 11
83.006389
 21
-85.600527
  0
ARC
  8
1
 10
150.006389
 20
-151.600527
 40
3.000000
 50
0.000000
 51
80.405932
  0
ARC
  8
1
 10
81.006389
 20
-151.600527
 40
3.000000
 50
99.594068
 51
180.000000
  0
ARC
  8
1
 10
151.006389
 20
-145.684448
 40
3.000000
 50
180.000000
 51
260.405932
  0
ARC
  8
1
 10
80.006389
 20
-145.684448
 40
3.000000
 50
279.594068
 51
360.000000
  0
ARC
  8
1
 10
158.006389
 20
-85.600527
 40
10.000000
 50
90.000000
 51
180.000000
  0
ARC
  8
1
 10
73.006389
 20
-85.600527
 40
10.000000
 50
0.000000
 51
90.000000
  0
ARC
  8
1
 10
173.006389
 20
-95.600527
 40
20.000000
 50
90.000000
 51
180.000000
  0
ARC
  8
1
 10
58.006389
 20
-95.600527
 40
20.000000
 50
0.000000
 51
90.000000
  0
LINE
  8
1
 10
80.711002
 20
-148.600527
 11
98.006389
 21
-148.600527
  0
LINE
  8
1
 10
133.006389
 20
-148.600527
 11
150.301777
 21
-148.600527
  0
ARC
  8
1
 10
158.006389
 20
-206.820996
 40
5.000000
 50
180.000000
 51
267.000000
  0
ARC
  8
1
 10
73.006389
 20
-206.820996
 40
5.000000
 50
273.000000
 51
360.000000
  0
LINE
  8
1
 10
121.506389
 20
-213.961364
 11
153.006389
 21
-215.580352
  0
LINE
  8
1
 10
109.506389
 20
-213.961364
 11
78.006389
 21
-215.580352
  0
ARC
  8
1
 10
158.006389
 20
-210.830734
 40
5.000000
 50
180.000000
 51
267.057790
  0
ARC
  8
1
 10
73.006389
 20
-210.830734
 40
5.000000
 50
272.942210
 51
360.000000
  0
LINE
  8
1
 10
153.006389
 20
-699.600527
 11
78.006389
 21
-699.600527
  0
LINE
  8
1
 10
78.006389
 20
-697.600527
 11
78.006389
 21
-628.554267
  0
LINE
  8
1
 10
153.006389
 20
-697.600527
 11
153.006389
 21
-628.554267
  0
LINE
  8
1
 10
153.006389
 20
-697.600527
 11
151.006389
 21
-699.600527
  0
LINE
  8
1
 10
78.006389
 20
-697.600527
 11
80.006389
 21
-699.600527
  0
LINE
  8
1
 10
153.006389
 20
-697.600527
 11
78.006389
 21
-697.600527
  0
ARC
  8
1
 10
158.006389
 20
-632.380058
 40
5.000000
 50
93.000000
 51
180.000000
  0
ARC
  8
1
 10
73.006389
 20
-632.380058
 40
5.000000
 50
0.000000
 51
87.000000
  0
LINE
  8
1
 10
109.506389
 20
-625.425319
 11
78.006389
 21
-623.804869
  0
LINE
  8
1
 10
121.506389
 20
-625.425319
 11
153.006389
 21
-623.804869
  0
ARC
  8
1
 10
158.006389
 20
-628.554267
 40
5.000000
 50
92.944862
 51
180.000000
  0
ARC
  8
1
 10
73.006389
 20
-628.554267
 40
5.000000
 50
0.000000
 51
87.055138
  0
LINE
  8
1
 10
109.506389
 20
-171.474140
 11
109.506389
 21
-81.600527
  0
LINE
  8
1
 10
121.506389
 20
-171.474140
 11
121.506389
 21
-81.600527
  0
ARC
  8
1
 10
127.506389
 20
-81.600527
 40
6.000000
 50
90.000000
 51
180.000000
  0
ARC
  8
1
 10
103.506389
 20
-81.600527
 40
6.000000
 50
0.000000
 51
90.000000
  0
ARC
  8
1
 10
127.506389
 20
-171.474140
 40
6.000000
 50
180.000000
 51
270.000000
  0
ARC
  8
1
 10
103.506389
 20
-171.474140
 40
6.000000
 50
270.000000
 51
360.000000
  0
LINE
  8
1
 10
127.506389
 20
-177.474140
 11
145.365596
 21
-177.474140
  0
LINE
  8
1
 10
85.647182
 20
-177.474140
 11
103.506389
 21
-177.474140
  0
LINE
  8
1
 10
109.506389
 20
-177.474140
 11
121.506389
 21
-177.474140
  0
LINE
  8
1
 10
112.506389
 20
-152.004731
 11
118.506389
 21
-152.004731
  0
LINE
  8
1
 10
112.506389
 20
-168.008924
 11
118.506389
 21
-168.008924
  0
ARC
  8
1
 10
118.506389
 20
-155.004731
 40
3.000000
 50
0.000000
 51
90.000000
  0
ARC
  8
1
 10
118.506389
 20
-165.008924
 40
3.000000
 50
270.000000
 51
360.000000
  0
ARC
  8
1
 10
112.506389
 20
-165.008924
 40
3.000000
 50
180.000000
 51
270.000000
  0
ARC
  8
1
 10
112.506389
 20
-155.004731
 40
3.000000
 50
90.000000
 51
180.000000
  0
LINE
  8
1
 10
119.506389
 20
-95.600527
 11
111.506389
 21
-95.600527
  0
LINE
  8
1
 10
85.647182
 20
-201.394203
 11
145.365596
 21
-201.394203
  0
LINE
  8
1
 10
112.506389
 20
-202.700527
 11
118.506389
 21
-202.700527
  0
LINE
  8
1
 10
109.506389
 20
-245.051780
 11
121.506389
 21
-245.051780
  0
LINE
  8
1
 10
111.506389
 20
-215.130244
 11
119.506389
 21
-215.130244
  0
LINE
  8
1
 10
109.506389
 20
-242.051780
 11
109.506389
 21
-205.700527
  0
LINE
  8
1
 10
121.506389
 20
-242.051780
 11
121.506389
 21
-205.700527
  0
ARC
  8
1
 10
124.506389
 20
-242.051780
 40
3.000000
 50
180.000000
 51
270.000000
  0
ARC
  8
1
 10
106.506389
 20
-242.051780
 40
3.000000
 50
270.000000
 51
360.000000
  0
ARC
  8
1
 10
118.506389
 20
-205.700527
 40
3.000000
 50
0.000000
 51
90.000000
  0
ARC
  8
1
 10
112.506389
 20
-205.700527
 40
3.000000
 50
90.000000
 51
180.000000
  0
LINE
  8
1
 10
90.506389
 20
-431.600527
 11
90.506389
 21
-407.600527
  0
LINE
  8
1
 10
140.506389
 20
-431.600527
 11
140.506389
 21
-407.600527
  0
LINE
  8
1
 10
137.506389
 20
-404.600527
 11
93.506389
 21
-404.600527
  0
LINE
  8
1
 10
137.506389
 20
-434.600527
 11
93.506389
 21
-434.600527
  0
ARC
  8
1
 10
137.506389
 20
-407.600527
 40
3.000000
 50
0.000000
 51
90.000000
  0
ARC
  8
1
 10
137.506389
 20
-431.600527
 40
3.000000
 50
270.000000
 51
360.000000
  0
ARC
  8
1
 10
93.506389
 20
-431.600527
 40
3.000000
 50
180.000000
 51
270.000000
  0
ARC
  8
1
 10
93.506389
 20
-407.600527
 40
3.000000
 50
90.000000
 51
180.000000
  0
LINE
  8
1
 10
109.506389
 20
-308.086375
 11
121.506389
 21
-308.086375
  0
LINE
  8
1
 10
109.506389
 20
-365.248528
 11
121.506389
 21
-365.248528
  0
LINE
  8
1
 10
112.506389
 20
-324.201210
 11
118.506389
 21
-324.201210
  0
LINE
  8
1
 10
112.506389
 20
-342.077398
 11
118.506389
 21
-342.077398
  0
LINE
  8
1
 10
109.506389
 20
-362.248528
 11
109.506389
 21
-311.086375
  0
LINE
  8
1
 10
121.506389
 20
-362.248528
 11
121.506389
 21
-311.086375
  0
ARC
  8
1
 10
124.506389
 20
-311.086375
 40
3.000000
 50
90.000000
 51
180.000000
  0
ARC
  8
1
 10
106.506389
 20
-311.086375
 40
3.000000
 50
0.000000
 51
90.000000
  0
ARC
  8
1
 10
124.506389
 20
-362.248528
 40
3.000000
 50
180.000000
 51
270.000000
  0
ARC
  8
1
 10
106.506389
 20
-362.248528
 40
3.000000
 50
270.000000
 51
360.000000
  0
ARC
  8
1
 10
118.506389
 20
-327.201210
 40
3.000000
 50
0.000000
 51
90.000000
  0
ARC
  8
1
 10
118.506389
 20
-339.077398
 40
3.000000
 50
270.000000
 51
360.000000
  0
ARC
  8
1
 10
112.506389
 20
-339.077398
 40
3.000000
 50
180.000000
 51
270.000000
  0
ARC
  8
1
 10
112.506389
 20
-327.201210
 40
3.000000
 50
90.000000
 51
180.000000
  0
LINE
  8
1
 10
112.506389
 20
-636.500527
 11
118.506389
 21
-636.500527
  0
LINE
  8
1
 10
109.506389
 20
-594.149275
 11
121.506389
 21
-594.149275
  0
LINE
  8
1
 10
109.506389
 20
-597.149275
 11
109.506389
 21
-693.600527
  0
LINE
  8
1
 10
121.506389
 20
-597.149275
 11
121.506389
 21
-693.600527
  0
ARC
  8
1
 10
124.506389
 20
-597.149275
 40
3.000000
 50
90.000000
 51
180.000000
  0
ARC
  8
1
 10
106.506389
 20
-597.149275
 40
3.000000
 50
360.000000
 51
90.000000
  0
ARC
  8
1
 10
118.506389
 20
-633.500527
 40
3.000000
 50
270.000000
 51
360.000000
  0
ARC
  8
1
 10
112.506389
 20
-633.500527
 40
3.000000
 50
180.000000
 51
270.000000
  0
LINE
  8
1
 10
109.506389
 20
-531.114679
 11
121.506389
 21
-531.114679
  0
LINE
  8
1
 10
109.506389
 20
-473.952527
 11
121.506389
 21
-473.952527
  0
LINE
  8
1
 10
112.506389
 20
-514.999845
 11
118.506389
 21
-514.999845
  0
LINE
  8
1
 10
112.506389
 20
-497.123657
 11
118.506389
 21
-497.123657
  0
LINE
  8
1
 10
109.506389
 20
-476.952527
 11
109.506389
 21
-528.114679
  0
LINE
  8
1
 10
121.506389
 20
-476.952527
 11
121.506389
 21
-528.114679
  0
ARC
  8
1
 10
124.506389
 20
-528.114679
 40
3.000000
 50
180.000000
 51
270.000000
  0
ARC
  8
1
 10
106.506389
 20
-528.114679
 40
3.000000
 50
270.000000
 51
360.000000
  0
ARC
  8
1
 10
124.506389
 20
-476.952527
 40
3.000000
 50
90.000000
 51
180.000000
  0
ARC
  8
1
 10
106.506389
 20
-476.952527
 40
3.000000
 50
360.000000
 51
90.000000
  0
ARC
  8
1
 10
118.506389
 20
-511.999845
 40
3.000000
 50
270.000000
 51
360.000000
  0
ARC
  8
1
 10
118.506389
 20
-500.123657
 40
3.000000
 50
360.000000
 51
90.000000
  0
ARC
  8
1
 10
112.506389
 20
-500.123657
 40
3.000000
 50
90.000000
 51
180.000000
  0
ARC
  8
1
 10
112.506389
 20
-511.999845
 40
3.000000
 50
180.000000
 51
270.000000
  0
LINE
  8
1
 10
109.506389
 20
-696.600527
 11
121.506389
 21
-696.600527
  0
ARC
  8
1
 10
124.506389
 20
-693.600527
 40
3.000000
 50
180.000000
 51
270.000000
  0
ARC
  8
1
 10
106.506389
 20
-693.600527
 40
3.000000
 50
270.000000
 51
360.000000
  0
LINE
  8
1
 10
112.506389
 20
-671.085096
 11
118.506389
 21
-671.085096
  0
LINE
  8
1
 10
112.506389
 20
-686.600527
 11
118.506389
 21
-686.600527
  0
ARC
  8
1
 10
118.506389
 20
-674.085096
 40
3.000000
 50
0.000000
 51
90.000000
  0
ARC
  8
1
 10
112.506389
 20
-674.085096
 40
3.000000
 50
90.000000
 51
180.000000
  0
ARC
  8
1
 10
112.506389
 20
-683.600527
 40
3.000000
 50
180.000000
 51
270.000000
  0
ARC
  8
1
 10
118.506389
 20
-683.600527
 40
3.000000
 50
270.000000
 51
360.000000
  0
LINE
  8
1
 10
112.506389
 20
-209.838397
 11
118.506389
 21
-209.838397
  0
ARC
  8
1
 10
118.506389
 20
-206.838397
 40
3.000000
 50
270.000000
 51
360.000000
  0
ARC
  8
1
 10
112.506389
 20
-206.838397
 40
3.000000
 50
180.000000
 51
270.000000
  0
LINE
  8
1
 10
111.506389
 20
-624.070811
 11
119.506389
 21
-624.070811
  0
LINE
  8
1
 10
112.506389
 20
-629.362658
 11
118.506389
 21
-629.362658
  0
ARC
  8
1
 10
118.506389
 20
-632.362658
 40
3.000000
 50
360.000000
 51
90.000000
  0
ARC
  8
1
 10
112.506389
 20
-632.362658
 40
3.000000
 50
90.000000
 51
180.000000
  0
LINE
  8
1
 10
111.506389
 20
-654.853051
 11
119.506389
 21
-654.853051
  0
LINE
  8
1
  6
CENTER
 62
2
 10
87.006389
 20
-683.795480
 11
87.006389
 21
-729.935128
  0
LINE
  8
1
  6
CENTER
 62
2
 10
144.006389
 20
-683.795480
 11
144.006389
 21
-729.935128
  0
LINE
  8
1
 10
78.006389
 20
-701.100527
 11
153.006389
 21
-701.100527
  0
LINE
  8
1
 10
78.006389
 20
-699.600527
 11
78.006389
 21
-713.100527
  0
LINE
  8
1
 10
153.006389
 20
-699.600527
 11
153.006389
 21
-713.100527
  0
LINE
  8
1
 10
78.006389
 20
-713.100527
 11
153.006389
 21
-713.100527
  0
LINE
  8
1
 10
150.506389
 20
-715.100527
 11
150.506389
 21
-720.600527
  0
ARC
  8
1
 10
147.256389
 20
-712.921769
 40
7.678759
 50
244.960340
 51
295.039660
  0
LINE
  8
1
 10
137.506389
 20
-715.100527
 11
137.506389
 21
-720.600527
  0
LINE
  8
1
 10
137.506389
 20
-720.600527
 11
150.506389
 21
-720.600527
  0
LINE
  8
1
 10
144.006389
 20
-715.100527
 11
144.006389
 21
-719.878840
  0
ARC
  8
1
 10
140.756389
 20
-712.921769
 40
7.678759
 50
244.960340
 51
295.039660
  0
LINE
  8
1
 10
151.706389
 20
-713.100527
 11
151.706389
 21
-715.100527
  0
LINE
  8
1
 10
151.706389
 20
-715.100527
 11
136.306389
 21
-715.100527
  0
LINE
  8
1
 10
136.306389
 20
-715.100527
 11
136.306389
 21
-713.100527
  0
LINE
  8
1
 10
125.006389
 20
-713.100527
 11
125.006389
 21
-723.100527
  0
ARC
  8
1
 10
120.256389
 20
-712.517253
 40
10.583275
 50
243.331909
 51
296.668091
  0
LINE
  8
1
 10
106.006389
 20
-713.100527
 11
106.006389
 21
-723.100527
  0
LINE
  8
1
 10
106.006389
 20
-723.100527
 11
125.006389
 21
-723.100527
  0
LINE
  8
1
 10
115.506389
 20
-713.100527
 11
115.506389
 21
-721.974694
  0
ARC
  8
1
 10
110.756389
 20
-712.517253
 40
10.583275
 50
243.331909
 51
296.668091
  0
LINE
  8
1
 10
110.453389
 20
-739.600527
 11
120.559389
 21
-739.600527
  0
LINE
  8
1
 10
109.506389
 20
-723.100527
 11
109.506389
 21
-738.653527
  0
LINE
  8
1
 10
121.506389
 20
-723.100527
 11
121.506389
 21
-738.653527
  0
LINE
  8
1
 62
2
 10
120.559389
 20
-723.100527
 11
120.559389
 21
-739.600527
  0
LINE
  8
1
 62
2
 10
110.453389
 20
-723.100527
 11
110.453389
 21
-739.600527
  0
LINE
  8
1
 10
120.559389
 20
-739.600527
 11
121.506389
 21
-738.653527
  0
LINE
  8
1
 10
110.453389
 20
-739.600527
 11
109.506389
 21
-738.653527
  0
LINE
  8
1
 10
121.506389
 20
-738.653527
 11
109.506389
 21
-738.653527
  0
LINE
  8
1
  6
CENTER
 62
2
 10
-642.353820
 20
-683.795480
 11
-642.353820
 21
-729.935128
  0
LINE
  8
1
  6
CENTER
 62
2
 10
-600.353820
 20
-683.795480
 11
-600.353820
 21
-729.935128
  0
LINE
  8
1
 10
-651.353820
 20
-701.100527
 11
-591.353820
 21
-701.100527
  0
LINE
  8
1
 10
-651.353820
 20
-713.100527
 11
-591.353820
 21
-713.100527
  0
LINE
  8
1
 10
-651.353820
 20
-699.600527
 11
-651.353820
 21
-713.100527
  0
LINE
  8
1
 10
-591.353820
 20
-699.600527
 11
-591.353820
 21
-713.100527
  0
LINE
  8
1
 10
-610.403820
 20
-713.100527
 11
-610.403820
 21
-721.974694
  0
LINE
  8
1
 10
-610.403820
 20
-721.974694
 11
-612.353820
 21
-723.100527
  0
LINE
  8
1
 10
-615.878820
 20
-713.100527
 11
-615.878820
 21
-721.974694
  0
ARC
  8
1
 10
-613.141320
 20
-718.455545
 40
4.458511
 50
232.121121
 51
307.878879
  0
ARC
  8
1
 10
-621.353820
 20
-706.489056
 40
16.425000
 50
250.528777
 51
289.471219
  0
LINE
  8
1
 10
-632.303820
 20
-713.100527
 11
-632.303820
 21
-721.974694
  0
LINE
  8
1
 10
-632.303820
 20
-721.974694
 11
-630.353820
 21
-723.100527
  0
LINE
  8
1
 10
-630.353820
 20
-723.100527
 11
-612.353820
 21
-723.100527
  0
LINE
  8
1
 10
-626.828820
 20
-713.100527
 11
-626.828820
 21
-721.974694
  0
ARC
  8
1
 10
-629.566320
 20
-718.455545
 40
4.458511
 50
232.121121
 51
307.878879
  0
LINE
  8
1
 10
-626.406820
 20
-739.600527
 11
-616.300820
 21
-739.600527
  0
LINE
  8
1
 10
-627.353820
 20
-723.100527
 11
-627.353820
 21
-738.653527
  0
LINE
  8
1
 10
-615.353820
 20
-723.100527
 11
-615.353820
 21
-738.653527
  0
LINE
  8
1
 62
2
 10
-616.300820
 20
-723.100527
 11
-616.300820
 21
-739.600527
  0
LINE
  8
1
 62
2
 10
-626.406820
 20
-723.100527
 11
-626.406820
 21
-739.600527
  0
LINE
  8
1
 10
-616.300820
 20
-739.600527
 11
-615.353820
 21
-738.653527
  0
LINE
  8
1
 10
-626.406820
 20
-739.600527
 11
-627.353820
 21
-738.653527
  0
LINE
  8
1
 10
-615.353820
 20
-738.653527
 11
-627.353820
 21
-738.653527
  0
LINE
  8
1
 10
-608.053820
 20
-715.100527
 11
-592.653820
 21
-715.100527
  0
LINE
  8
1
 10
-592.853820
 20
-715.100527
 11
-592.853820
 21
-719.878840
  0
LINE
  8
1
 10
-592.853820
 20
-719.878840
 11
-594.103820
 21
-720.600527
  0
LINE
  8
1
 10
-596.603820
 20
-715.100527
 11
-596.603820
 21
-719.878840
  0
ARC
  8
1
 10
-594.728820
 20
-717.468463
 40
3.053774
 50
232.121121
 51
307.878879
  0
ARC
  8
1
 10
-600.353820
 20
-709.272238
 40
11.250000
 50
250.528777
 51
289.471219
  0
LINE
  8
1
 10
-607.853820
 20
-715.100527
 11
-607.853820
 21
-719.878840
  0
LINE
  8
1
 10
-607.853820
 20
-719.878840
 11
-606.603820
 21
-720.600527
  0
LINE
  8
1
 10
-606.603820
 20
-720.600527
 11
-594.103820
 21
-720.600527
  0
LINE
  8
1
 10
-604.103820
 20
-715.100527
 11
-604.103820
 21
-719.878840
  0
ARC
  8
1
 10
-605.978820
 20
-717.468463
 40
3.053774
 50
232.121121
 51
307.878879
  0
LINE
  8
1
 10
-592.653820
 20
-713.100527
 11
-592.653820
 21
-715.100527
  0
LINE
  8
1
 10
-608.053820
 20
-715.100527
 11
-608.053820
 21
-713.100527
  0
LINE
  8
1
 10
-600.353820
 20
-715.100527
 11
-600.853820
 21
-713.100527
  0
LINE
  8
1
 10
-600.353820
 20
-713.100527
 11
-599.853820
 21
-715.100527
  0
LINE
  8
1
 10
-650.053820
 20
-715.100527
 11
-634.653820
 21
-715.100527
  0
LINE
  8
1
 10
-634.853820
 20
-715.100527
 11
-634.853820
 21
-719.878840
  0
LINE
  8
1
 10
-634.853820
 20
-719.878840
 11
-636.103820
 21
-720.600527
  0
LINE
  8
1
 10
-638.603820
 20
-715.100527
 11
-638.603820
 21
-719.878840
  0
ARC
  8
1
 10
-636.728820
 20
-717.468463
 40
3.053774
 50
232.121121
 51
307.878879
  0
ARC
  8
1
 10
-642.353820
 20
-709.272238
 40
11.250000
 50
250.528777
 51
289.471219
  0
LINE
  8
1
 10
-649.853820
 20
-715.100527
 11
-649.853820
 21
-719.878840
  0
LINE
  8
1
 10
-649.853820
 20
-719.878840
 11
-648.603820
 21
-720.600527
  0
LINE
  8
1
 10
-648.603820
 20
-720.600527
 11
-636.103820
 21
-720.600527
  0
LINE
  8
1
 10
-646.103820
 20
-715.100527
 11
-646.103820
 21
-719.878840
  0
ARC
  8
1
 10
-647.978820
 20
-717.468463
 40
3.053774
 50
232.121121
 51
307.878879
  0
LINE
  8
1
 10
-634.653820
 20
-713.100527
 11
-634.653820
 21
-715.100527
  0
LINE
  8
1
 10
-650.053820
 20
-715.100527
 11
-650.053820
 21
-713.100527
  0
LINE
  8
1
 10
-642.353820
 20
-715.100527
 11
-642.853820
 21
-713.100527
  0
LINE
  8
1
 10
-642.353820
 20
-713.100527
 11
-641.853820
 21
-715.100527
  0
LINE
  8
1
 10
93.506389
 20
-715.100527
 11
93.506389
 21
-720.600527
  0
ARC
  8
1
 10
90.256389
 20
-712.921769
 40
7.678759
 50
244.960340
 51
295.039660
  0
LINE
  8
1
 10
80.506389
 20
-715.100527
 11
80.506389
 21
-720.600527
  0
LINE
  8
1
 10
80.506389
 20
-720.600527
 11
93.506389
 21
-720.600527
  0
LINE
  8
1
 10
87.006389
 20
-715.100527
 11
87.006389
 21
-719.878840
  0
ARC
  8
1
 10
83.756389
 20
-712.921769
 40
7.678759
 50
244.960340
 51
295.039660
  0
LINE
  8
1
 10
94.706389
 20
-713.100527
 11
94.706389
 21
-715.100527
  0
LINE
  8
1
 10
94.706389
 20
-715.100527
 11
79.306389
 21
-715.100527
  0
LINE
  8
1
 10
79.306389
 20
-715.100527
 11
79.306389
 21
-713.100527
  0
LINE
  8
1
 10
94.006389
 20
-416.100527
 11
106.851689
 21
-416.100527
  0
LINE
  8
1
 10
94.006389
 20
-423.100527
 11
106.851689
 21
-423.100527
  0
LINE
  8
1
 10
108.006389
 20
-421.100527
 11
123.006389
 21
-421.100527
  0
LINE
  8
1
 10
108.006389
 20
-418.100527
 11
123.006389
 21
-418.100527
  0
LINE
  8
1
 10
94.006389
 20
-416.100527
 11
96.027115
 21
-419.600527
  0
LINE
  8
1
 10
94.006389
 20
-423.100527
 11
96.027115
 21
-419.600527
  0
LINE
  8
1
 10
108.006389
 20
-418.100527
 11
106.851689
 21
-416.100527
  0
LINE
  8
1
 10
108.006389
 20
-421.100527
 11
106.851689
 21
-423.100527
  0
LINE
  8
1
 10
123.006389
 20
-418.100527
 11
124.161090
 21
-416.100527
  0
LINE
  8
1
 10
124.161090
 20
-416.100527
 11
137.006389
 21
-419.600527
  0
LINE
  8
1
 10
123.006389
 20
-421.100527
 11
124.161090
 21
-423.100527
  0
LINE
  8
1
 10
124.161090
 20
-423.100527
 11
137.006389
 21
-419.600527
  0
LINE
  8
1
 10
67.006389
 20
-608.100527
 11
67.006389
 21
-231.100527
  0
LINE
  8
1
 10
164.006389
 20
-231.100527
 11
164.006389
 21
-608.100527
  0
LINE
  8
1
 10
67.006389
 20
-231.100527
 11
69.506389
 21
-231.100527
  0
LINE
  8
1
 10
161.506389
 20
-231.100527
 11
164.006389
 21
-231.100527
  0
LINE
  8
1
 10
67.006389
 20
-608.100527
 11
69.506389
 21
-608.100527
  0
LINE
  8
1
 10
161.506389
 20
-608.100527
 11
164.006389
 21
-608.100527
  0
LINE
  8
1
 10
-432.853820
 20
593.883078
 11
-432.853820
 21
591.383078
  0
LINE
  8
1
 10
-432.853820
 20
499.383078
 11
-432.853820
 21
496.883078
  0
LINE
  8
1
  6
DASHED
 10
-809.853820
 20
593.883078
 11
-809.853820
 21
591.383078
  0
LINE
  8
1
  6
DASHED
 10
-809.853820
 20
499.383078
 11
-809.853820
 21
496.883078
  0
LINE
  8
1
  6
DASHED
 10
-809.853820
 20
593.883078
 11
-678.122153
 21
593.883078
  0
LINE
  8
1
  6
DASHED
 10
-809.853820
 20
496.883078
 11
-678.122153
 21
496.883078
  0
CIRCLE
  8
1
 10
-621.353820
 20
-419.600527
 40
180.500000
  0
CIRCLE
  8
1
 10
-621.353820
 20
-419.600527
 40
177.000000
  0
CIRCLE
  8
1
 10
-621.353820
 20
-419.600527
 40
169.100000
  0
CIRCLE
  8
1
 10
-621.353820
 20
-419.600527
 40
166.050000
  0
LINE
  8
1
 10
-592.944128
 20
-255.998902
 11
-649.763512
 21
-255.998902
  0
LINE
  8
1
 10
-592.944128
 20
-583.202153
 11
-649.763512
 21
-583.202153
  0
CIRCLE
  8
1
 10
-621.353820
 20
-419.600527
 40
189.500000
  0
LINE
  8
1
 10
-645.762677
 20
-303.566351
 11
-645.762677
 21
-535.634704
  0
ARC
  8
1
 10
-604.773421
 20
-261.970136
 40
13.000000
 50
11.204282
 51
27.343604
  0
LINE
  8
1
 10
-650.934218
 20
-261.970136
 11
-650.934218
 21
-264.518717
  0
ARC
  8
1
 10
-637.934218
 20
-261.970136
 40
13.000000
 50
152.656396
 51
180.000000
  0
LINE
  8
1
  6
CENTER
 62
2
 10
-605.614966
 20
-319.600527
 11
-637.712073
 21
-319.600527
  0
LINE
  8
1
 10
-594.984858
 20
-305.600527
 11
-617.353820
 21
-305.600527
  0
LINE
  8
1
 10
-594.984858
 20
-333.600527
 11
-617.353820
 21
-333.600527
  0
ARC
  8
1
 10
-594.984858
 20
-319.600527
 40
14.000000
 50
270.000000
 51
90.000000
  0
ARC
  8
1
 10
-603.853820
 20
-319.600527
 40
14.000000
 50
270.000000
 51
90.000000
  0
LINE
  8
1
 10
-591.773421
 20
-303.775925
 11
-591.773421
 21
-298.804085
  0
ARC
  8
1
 10
-588.773421
 20
-335.425130
 40
3.000000
 50
111.430888
 51
180.000000
  0
ARC
  8
1
 10
-588.773421
 20
-303.775925
 40
3.000000
 50
180.000000
 51
248.569112
  0
ARC
  8
1
 10
-617.353820
 20
-301.600527
 40
4.000000
 50
180.000000
 51
270.000000
  0
ARC
  8
1
 10
-617.353820
 20
-337.600527
 40
4.000000
 50
90.000000
 51
180.000000
  0
ARC
  8
1
 10
-621.353820
 20
-419.600527
 40
155.494063
 50
358.525935
 51
1.474065
  0
ARC
  8
1
 10
-621.353820
 20
-419.600527
 40
155.494063
 50
8.454410
 51
11.353119
  0
ARC
  8
1
 10
-621.353820
 20
-419.600527
 40
155.494063
 50
18.621159
 51
21.223354
  0
ARC
  8
1
 10
-465.596277
 20
-393.388927
 40
3.000000
 50
279.086080
 51
9.552495
  0
ARC
  8
1
 10
-466.020577
 20
-390.981586
 40
3.000000
 50
10.439232
 51
92.965825
  0
ARC
  8
1
 10
-463.410471
 20
-418.434876
 40
3.000000
 50
0.422846
 51
86.694379
  0
ARC
  8
1
 10
-490.247761
 20
-418.251425
 40
3.000000
 50
96.925793
 51
180.589562
  0
ARC
  8
1
 10
-492.018269
 20
-398.084624
 40
3.000000
 50
189.445071
 51
282.679983
  0
ARC
  8
1
 10
-492.470192
 20
-395.525036
 40
3.000000
 50
115.977085
 51
190.580918
  0
ARC
  8
1
 10
-621.353820
 20
-419.600527
 40
128.113000
 50
1.789205
 51
8.024271
  0
ARC
  8
1
 10
-621.353820
 20
-419.600527
 40
160.947649
 50
1.183389
 51
8.475815
  0
ARC
  8
1
 10
-479.404278
 20
-413.100527
 40
1.500000
 50
270.000000
 51
4.924415
  0
ARC
  8
1
 10
-483.694482
 20
-413.100527
 40
1.500000
 50
184.924415
 51
270.000000
  0
ARC
  8
1
 10
-480.501947
 20
-400.360570
 40
1.500000
 50
4.924415
 51
100.151082
  0
ARC
  8
1
 10
-484.726973
 20
-401.117048
 40
1.500000
 50
100.151082
 51
184.924415
  0
ARC
  8
1
 10
-472.632064
 20
-366.409368
 40
3.000000
 50
286.653316
 51
19.679871
  0
ARC
  8
1
 10
-473.264255
 20
-364.673840
 40
3.000000
 50
20.349908
 51
98.264677
  0
ARC
  8
1
 10
-484.262473
 20
-341.156772
 40
3.000000
 50
294.168271
 51
29.778217
  0
ARC
  8
1
 10
-484.964605
 20
-339.942244
 40
3.000000
 50
30.287115
 51
104.094272
  0
ARC
  8
1
 10
-508.228931
 20
-353.317963
 40
3.000000
 50
148.648780
 51
210.367053
  0
ARC
  8
1
 10
-498.551540
 20
-373.663409
 40
3.000000
 50
133.310035
 51
200.509508
  0
ARC
  8
1
 10
-497.750630
 20
-375.864153
 40
3.000000
 50
199.486072
 51
301.338015
  0
ARC
  8
1
 10
-621.353820
 20
-419.600527
 40
128.113000
 50
11.600635
 51
17.828335
  0
ARC
  8
1
 10
-621.353820
 20
-419.600527
 40
160.947649
 50
11.183733
 51
18.554455
  0
ARC
  8
1
 10
-621.353820
 20
-419.600527
 40
160.947649
 50
21.214850
 51
29.778217
  0
ARC
  8
1
 10
-507.416543
 20
-356.769883
 40
2.000000
 50
208.874513
 51
318.151236
  0
ARC
  8
1
 10
-621.353820
 20
-419.600527
 40
128.113000
 50
21.398052
 51
27.609114
  0
ARC
  8
1
 10
-495.680777
 20
-351.400071
 40
1.500000
 50
24.665694
 51
120.381255
  0
ARC
  8
1
 10
-499.402936
 20
-353.582212
 40
1.500000
 50
120.381255
 51
204.665694
  0
ARC
  8
1
 10
-490.017015
 20
-376.696907
 40
1.500000
 50
110.283559
 51
194.782166
  0
ARC
  8
1
 10
-485.983007
 20
-375.205997
 40
1.500000
 50
14.782166
 51
110.283559
  0
ARC
  8
1
 10
-490.361170
 20
-362.983990
 40
1.500000
 50
290.283559
 51
24.665694
  0
ARC
  8
1
 10
-494.399949
 20
-364.476662
 40
1.500000
 50
204.665694
 51
290.283559
  0
ARC
  8
1
 10
-482.723990
 20
-387.556446
 40
1.500000
 50
280.151082
 51
14.782166
  0
ARC
  8
1
 10
-486.951673
 20
-388.313401
 40
1.500000
 50
194.782166
 51
280.151082
  0
ARC
  8
1
 10
-621.353820
 20
-419.600527
 40
155.494063
 50
28.757115
 51
31.074663
  0
ARC
  8
1
 10
-621.353820
 20
-419.600527
 40
155.494063
 50
38.874422
 51
40.890963
  0
ARC
  8
1
 10
-519.868080
 20
-338.175485
 40
2.000000
 50
218.741114
 51
333.117627
  0
ARC
  8
1
 10
-535.157082
 20
-322.135071
 40
2.000000
 50
228.511020
 51
346.814670
  0
ARC
  8
1
 10
-500.698812
 20
-317.670017
 40
3.000000
 50
40.191445
 51
109.922763
  0
ARC
  8
1
 10
-519.910332
 20
-298.535756
 40
3.000000
 50
50.039437
 51
115.606836
  0
ARC
  8
1
 10
-536.729882
 20
-319.453596
 40
3.000000
 50
175.268979
 51
229.802263
  0
ARC
  8
1
 10
-521.124587
 20
-335.074083
 40
3.000000
 50
162.393429
 51
220.141982
  0
ARC
  8
1
 10
-498.617950
 20
-318.604183
 40
2.000000
 50
301.964618
 51
39.450128
  0
ARC
  8
1
 10
-518.150252
 20
-298.714718
 40
2.000000
 50
310.238384
 51
49.511695
  0
ARC
  8
1
 10
-621.353820
 20
-419.600527
 40
160.947649
 50
31.090738
 51
38.639204
  0
ARC
  8
1
 10
-621.353820
 20
-419.600527
 40
128.113000
 50
31.165766
 51
37.345979
  0
ARC
  8
1
 10
-621.353820
 20
-419.600527
 40
128.113000
 50
40.878877
 51
47.002552
  0
ARC
  8
1
 10
-621.353820
 20
-419.600527
 40
160.947649
 50
40.937334
 51
48.675004
  0
ARC
  8
1
 10
-526.430621
 20
-310.660959
 40
1.500000
 50
44.561451
 51
140.431313
  0
ARC
  8
1
 10
-529.202737
 20
-314.015603
 40
1.500000
 50
140.431313
 51
224.561451
  0
ARC
  8
1
 10
-512.598681
 20
-332.474920
 40
1.500000
 50
130.432461
 51
214.588974
  0
ARC
  8
1
 10
-509.300988
 20
-329.665140
 40
1.500000
 50
34.588974
 51
130.432461
  0
ARC
  8
1
 10
-502.084789
 20
-340.129923
 40
1.500000
 50
300.381255
 51
34.588974
  0
ARC
  8
1
 10
-505.812884
 20
-342.315545
 40
1.500000
 50
214.588974
 51
300.381255
  0
ARC
  8
1
 10
-517.539443
 20
-319.689298
 40
1.500000
 50
310.432461
 51
44.561451
  0
ARC
  8
1
 10
-520.843122
 20
-322.504178
 40
1.500000
 50
224.561451
 51
310.432461
  0
ARC
  8
1
 10
-621.353820
 20
-419.600527
 40
155.494063
 50
48.973172
 51
50.641959
  0
ARC
  8
1
 10
-621.353820
 20
-419.600527
 40
155.494063
 50
58.372557
 51
60.259557
  0
ARC
  8
1
 10
-621.353820
 20
-419.600527
 40
155.494063
 50
68.130317
 51
69.550855
  0
ARC
  8
1
 10
-538.714883
 20
-283.824383
 40
2.000000
 50
307.695532
 51
58.673589
  0
ARC
  8
1
 10
-562.608190
 20
-271.907243
 40
2.000000
 50
311.344975
 51
68.309601
  0
ARC
  8
1
 10
-552.156946
 20
-310.004349
 40
1.500000
 50
237.732490
 51
0.145892
  0
ARC
  8
1
 10
-570.774594
 20
-300.263728
 40
1.500000
 50
247.031023
 51
14.465626
  0
ARC
  8
1
 10
-553.418075
 20
-306.293072
 40
4.000000
 50
188.249959
 51
239.054365
  0
ARC
  8
1
 10
-572.041813
 20
-297.035562
 40
4.000000
 50
202.868112
 51
248.083419
  0
ARC
  8
1
 10
-565.276579
 20
-273.012984
 40
4.000000
 50
69.065588
 51
124.064898
  0
ARC
  8
1
 10
-541.847172
 20
-284.281431
 40
4.000000
 50
59.563662
 51
120.727163
  0
ARC
  8
1
 10
-621.353820
 20
-419.600527
 40
160.947649
 50
50.729169
 51
57.641584
  0
ARC
  8
1
 10
-621.353820
 20
-419.600527
 40
160.947649
 50
60.408639
 51
67.154406
  0
ARC
  8
1
 10
-621.353820
 20
-419.600527
 40
160.947649
 50
69.810254
 51
78.646345
  0
ARC
  8
1
 10
-621.353820
 20
-419.600527
 40
128.113000
 50
68.823628
 51
74.905740
  0
ARC
  8
1
 10
-621.353820
 20
-419.600527
 40
128.113000
 50
50.490839
 51
56.503430
  0
ARC
  8
1
 10
-621.353820
 20
-419.600527
 40
128.113000
 50
59.898844
 51
65.659956
  0
ARC
  8
1
 10
-536.255941
 20
-302.284161
 40
1.500000
 50
320.431313
 51
54.586817
  0
ARC
  8
1
 10
-539.033093
 20
-305.644899
 40
1.500000
 50
234.586817
 51
320.431313
  0
ARC
  8
1
 10
-559.829152
 20
-292.249837
 40
1.500000
 50
244.662389
 51
330.378348
  0
ARC
  8
1
 10
-557.665459
 20
-288.444397
 40
1.500000
 50
330.378348
 51
64.662389
  0
ARC
  8
1
 10
-569.049468
 20
-283.054056
 40
1.500000
 50
64.662389
 51
160.280254
  0
ARC
  8
1
 10
-570.529521
 20
-287.183200
 40
1.500000
 50
160.280254
 51
244.662389
  0
ARC
  8
1
 10
-548.710476
 20
-298.764188
 40
1.500000
 50
150.378348
 51
234.586817
  0
ARC
  8
1
 10
-546.550235
 20
-294.964822
 40
1.500000
 50
54.586817
 51
150.378348
  0
ARC
  8
1
 10
-580.045203
 20
-284.492593
 40
1.500000
 50
160.280254
 51
202.868112
  0
ARC
  8
1
 10
-577.910779
 20
-278.537845
 40
1.500000
 50
124.064898
 51
160.280254
  0
ARC
  8
1
 10
-581.133198
 20
-278.636944
 40
1.500000
 50
340.280254
 51
76.456927
  0
ARC
  8
1
 10
-582.610798
 20
-282.759244
 40
1.500000
 50
256.278155
 51
340.280254
  0
ARC
  8
1
 10
-570.832672
 20
-288.028950
 40
1.500000
 50
160.280254
 51
194.465626
  0
ARC
  8
1
 10
-568.621699
 20
-281.860639
 40
1.500000
 50
131.344975
 51
160.280254
  0
ARC
  8
1
 10
-549.183439
 20
-299.596022
 40
1.500000
 50
150.378348
 51
180.145892
  0
LINE
  8
1
 10
-567.909875
 20
-319.973490
 11
-567.909875
 21
-519.227565
  0
ARC
  8
1
 10
-557.909875
 20
-319.973490
 40
10.000000
 50
60.555150
 51
180.000000
  0
ARC
  8
1
 10
-795.762677
 20
-303.566351
 40
150.000000
 50
0.000000
 51
15.088906
  0
LINE
  8
1
 10
-665.682050
 20
-276.148625
 11
-665.682050
 21
-563.052430
  0
ARC
  8
1
 10
-604.773421
 20
-577.230919
 40
13.000000
 50
332.656396
 51
348.795718
  0
LINE
  8
1
 10
-650.934218
 20
-577.230919
 11
-650.934218
 21
-574.682337
  0
ARC
  8
1
 10
-637.934218
 20
-577.230919
 40
13.000000
 50
180.000000
 51
207.343604
  0
LINE
  8
1
  6
CENTER
 62
2
 10
-605.614966
 20
-519.600527
 11
-637.712073
 21
-519.600527
  0
LINE
  8
1
 10
-594.984858
 20
-533.600527
 11
-617.353820
 21
-533.600527
  0
LINE
  8
1
 10
-594.984858
 20
-505.600527
 11
-617.353820
 21
-505.600527
  0
ARC
  8
1
 10
-594.984858
 20
-519.600527
 40
14.000000
 50
270.000000
 51
90.000000
  0
ARC
  8
1
 10
-603.853820
 20
-519.600527
 40
14.000000
 50
270.000000
 51
90.000000
  0
LINE
  8
1
 10
-591.773421
 20
-503.775925
 11
-591.773421
 21
-335.425130
  0
LINE
  8
1
 10
-591.773421
 20
-535.425130
 11
-591.773421
 21
-540.396969
  0
ARC
  8
1
 10
-588.773421
 20
-503.775925
 40
3.000000
 50
180.000000
 51
248.569112
  0
ARC
  8
1
 10
-588.773421
 20
-535.425130
 40
3.000000
 50
111.430888
 51
180.000000
  0
ARC
  8
1
 10
-617.353820
 20
-537.600527
 40
4.000000
 50
90.000000
 51
180.000000
  0
ARC
  8
1
 10
-617.353820
 20
-501.600527
 40
4.000000
 50
180.000000
 51
270.000000
  0
ARC
  8
1
 10
-621.353820
 20
-419.600527
 40
155.494063
 50
348.646881
 51
351.545590
  0
ARC
  8
1
 10
-621.353820
 20
-419.600527
 40
155.494063
 50
338.776646
 51
341.378841
  0
ARC
  8
1
 10
-465.596277
 20
-445.812128
 40
3.000000
 50
350.447505
 51
80.913920
  0
ARC
  8
1
 10
-466.020577
 20
-448.219469
 40
3.000000
 50
267.034175
 51
349.560768
  0
ARC
  8
1
 10
-463.410471
 20
-420.766179
 40
3.000000
 50
273.305621
 51
359.577154
  0
ARC
  8
1
 10
-490.247761
 20
-420.949630
 40
3.000000
 50
179.410438
 51
263.074207
  0
ARC
  8
1
 10
-492.018269
 20
-441.116431
 40
3.000000
 50
77.320017
 51
170.554929
  0
ARC
  8
1
 10
-492.470192
 20
-443.676019
 40
3.000000
 50
169.419082
 51
244.022915
  0
ARC
  8
1
 10
-621.353820
 20
-419.600527
 40
128.113000
 50
351.975729
 51
358.210795
  0
ARC
  8
1
 10
-621.353820
 20
-419.600527
 40
160.947649
 50
351.524185
 51
358.816611
  0
ARC
  8
1
 10
-479.404278
 20
-426.100527
 40
1.500000
 50
355.075585
 51
90.000000
  0
ARC
  8
1
 10
-483.694482
 20
-426.100527
 40
1.500000
 50
90.000000
 51
175.075585
  0
ARC
  8
1
 10
-480.501947
 20
-438.840485
 40
1.500000
 50
259.848918
 51
355.075585
  0
ARC
  8
1
 10
-484.726973
 20
-438.084007
 40
1.500000
 50
175.075585
 51
259.848918
  0
ARC
  8
1
 10
-472.632064
 20
-472.791687
 40
3.000000
 50
340.320129
 51
73.346684
  0
ARC
  8
1
 10
-473.264255
 20
-474.527215
 40
3.000000
 50
261.735323
 51
339.650092
  0
ARC
  8
1
 10
-484.262473
 20
-498.044283
 40
3.000000
 50
330.221783
 51
65.831729
  0
ARC
  8
1
 10
-484.964605
 20
-499.258811
 40
3.000000
 50
255.905728
 51
329.712885
  0
ARC
  8
1
 10
-508.228931
 20
-485.883092
 40
3.000000
 50
149.632947
 51
211.351220
  0
ARC
  8
1
 10
-498.551540
 20
-465.537646
 40
3.000000
 50
159.490492
 51
226.689965
  0
ARC
  8
1
 10
-497.750630
 20
-463.336901
 40
3.000000
 50
58.661985
 51
160.513928
  0
ARC
  8
1
 10
-621.353820
 20
-419.600527
 40
128.113000
 50
342.171665
 51
348.399365
  0
ARC
  8
1
 10
-621.353820
 20
-419.600527
 40
160.947649
 50
341.445545
 51
348.816267
  0
ARC
  8
1
 10
-621.353820
 20
-419.600527
 40
160.947649
 50
330.221783
 51
338.785150
  0
ARC
  8
1
 10
-507.416543
 20
-482.431172
 40
2.000000
 50
41.848764
 51
151.125487
  0
ARC
  8
1
 10
-621.353820
 20
-419.600527
 40
128.113000
 50
332.390886
 51
338.601948
  0
ARC
  8
1
 10
-495.680777
 20
-487.800983
 40
1.500000
 50
239.618745
 51
335.334306
  0
ARC
  8
1
 10
-499.402936
 20
-485.618842
 40
1.500000
 50
155.334306
 51
239.618745
  0
ARC
  8
1
 10
-490.017015
 20
-462.504148
 40
1.500000
 50
165.217834
 51
249.716441
  0
ARC
  8
1
 10
-485.983007
 20
-463.995057
 40
1.500000
 50
249.716441
 51
345.217834
  0
ARC
  8
1
 10
-490.361170
 20
-476.217065
 40
1.500000
 50
335.334306
 51
69.716441
  0
ARC
  8
1
 10
-494.399949
 20
-474.724392
 40
1.500000
 50
69.716441
 51
155.334306
  0
ARC
  8
1
 10
-482.723990
 20
-451.644608
 40
1.500000
 50
345.217834
 51
79.848918
  0
ARC
  8
1
 10
-486.951673
 20
-450.887654
 40
1.500000
 50
79.848918
 51
165.217834
  0
ARC
  8
1
 10
-621.353820
 20
-419.600527
 40
155.494063
 50
328.925337
 51
331.242885
  0
ARC
  8
1
 10
-621.353820
 20
-419.600527
 40
155.494063
 50
319.109037
 51
321.125578
  0
ARC
  8
1
 10
-519.868080
 20
-501.025569
 40
2.000000
 50
26.882373
 51
141.258886
  0
ARC
  8
1
 10
-535.157082
 20
-517.065984
 40
2.000000
 50
13.185330
 51
131.488980
  0
ARC
  8
1
 10
-500.698812
 20
-521.531038
 40
3.000000
 50
250.077237
 51
319.808555
  0
ARC
  8
1
 10
-519.910332
 20
-540.665299
 40
3.000000
 50
244.393164
 51
309.960563
  0
ARC
  8
1
 10
-536.729882
 20
-519.747459
 40
3.000000
 50
130.197737
 51
184.731021
  0
ARC
  8
1
 10
-521.124587
 20
-504.126972
 40
3.000000
 50
139.858018
 51
197.606571
  0
ARC
  8
1
 10
-498.617950
 20
-520.596871
 40
2.000000
 50
320.549872
 51
58.035382
  0
ARC
  8
1
 10
-518.150252
 20
-540.486337
 40
2.000000
 50
310.488305
 51
49.761616
  0
ARC
  8
1
 10
-621.353820
 20
-419.600527
 40
160.947649
 50
321.360796
 51
328.909262
  0
ARC
  8
1
 10
-621.353820
 20
-419.600527
 40
128.113000
 50
322.654021
 51
328.834234
  0
ARC
  8
1
 10
-621.353820
 20
-419.600527
 40
128.113000
 50
312.997448
 51
319.121123
  0
ARC
  8
1
 10
-621.353820
 20
-419.600527
 40
160.947649
 50
311.324996
 51
319.062666
  0
ARC
  8
1
 10
-526.430621
 20
-528.540096
 40
1.500000
 50
219.568687
 51
315.438549
  0
ARC
  8
1
 10
-529.202737
 20
-525.185452
 40
1.500000
 50
135.438549
 51
219.568687
  0
ARC
  8
1
 10
-512.598681
 20
-506.726134
 40
1.500000
 50
145.411026
 51
229.567539
  0
ARC
  8
1
 10
-509.300988
 20
-509.535915
 40
1.500000
 50
229.567539
 51
325.411026
  0
ARC
  8
1
 10
-502.084789
 20
-499.071131
 40
1.500000
 50
325.411026
 51
59.618745
  0
ARC
  8
1
 10
-505.812884
 20
-496.885510
 40
1.500000
 50
59.618745
 51
145.411026
  0
ARC
  8
1
 10
-517.539443
 20
-519.511756
 40
1.500000
 50
315.438549
 51
49.567539
  0
ARC
  8
1
 10
-520.843122
 20
-516.696876
 40
1.500000
 50
49.567539
 51
135.438549
  0
ARC
  8
1
 10
-621.353820
 20
-419.600527
 40
155.494063
 50
309.358041
 51
311.026828
  0
ARC
  8
1
 10
-621.353820
 20
-419.600527
 40
155.494063
 50
299.740443
 51
301.627443
  0
ARC
  8
1
 10
-621.353820
 20
-419.600527
 40
155.494063
 50
290.449145
 51
291.869683
  0
ARC
  8
1
 10
-538.714883
 20
-555.376672
 40
2.000000
 50
301.326411
 51
52.304468
  0
ARC
  8
1
 10
-562.608190
 20
-567.293812
 40
2.000000
 50
291.690399
 51
48.655025
  0
ARC
  8
1
 10
-552.156946
 20
-529.196706
 40
1.500000
 50
359.854108
 51
122.267510
  0
ARC
  8
1
 10
-570.774594
 20
-538.937327
 40
1.500000
 50
345.534374
 51
112.968977
  0
ARC
  8
1
 10
-553.418075
 20
-532.907982
 40
4.000000
 50
120.945635
 51
171.750041
  0
ARC
  8
1
 10
-572.041813
 20
-542.165493
 40
4.000000
 50
111.916581
 51
157.131888
  0
ARC
  8
1
 10
-565.276579
 20
-566.188070
 40
4.000000
 50
235.935102
 51
290.934412
  0
ARC
  8
1
 10
-541.847172
 20
-554.919623
 40
4.000000
 50
239.272837
 51
300.436338
  0
ARC
  8
1
 10
-621.353820
 20
-419.600527
 40
160.947649
 50
302.358416
 51
309.270831
  0
ARC
  8
1
 10
-621.353820
 20
-419.600527
 40
160.947649
 50
292.845594
 51
299.591361
  0
ARC
  8
1
 10
-621.353820
 20
-419.600527
 40
160.947649
 50
281.353655
 51
290.189746
  0
ARC
  8
1
 10
-621.353820
 20
-419.600527
 40
128.113000
 50
285.094260
 51
291.176372
  0
ARC
  8
1
 10
-621.353820
 20
-419.600527
 40
128.113000
 50
303.496570
 51
309.509161
  0
ARC
  8
1
 10
-621.353820
 20
-419.600527
 40
128.113000
 50
294.340044
 51
300.101156
  0
ARC
  8
1
 10
-536.255941
 20
-536.916893
 40
1.500000
 50
305.413183
 51
39.568687
  0
ARC
  8
1
 10
-539.033093
 20
-533.556156
 40
1.500000
 50
39.568687
 51
125.413183
  0
ARC
  8
1
 10
-559.829152
 20
-546.951218
 40
1.500000
 50
29.621652
 51
115.337611
  0
ARC
  8
1
 10
-557.665459
 20
-550.756657
 40
1.500000
 50
295.337611
 51
29.621652
  0
ARC
  8
1
 10
-569.049468
 20
-556.146999
 40
1.500000
 50
199.719746
 51
295.337611
  0
ARC
  8
1
 10
-570.529521
 20
-552.017855
 40
1.500000
 50
115.337611
 51
199.719746
  0
ARC
  8
1
 10
-548.710476
 20
-540.436866
 40
1.500000
 50
125.413183
 51
209.621652
  0
ARC
  8
1
 10
-546.550235
 20
-544.236233
 40
1.500000
 50
209.621652
 51
305.413183
  0
ARC
  8
1
 10
-580.045203
 20
-554.708461
 40
1.500000
 50
157.131888
 51
199.719746
  0
ARC
  8
1
 10
-577.910779
 20
-560.663210
 40
1.500000
 50
199.719746
 51
235.935102
  0
ARC
  8
1
 10
-581.133198
 20
-560.564111
 40
1.500000
 50
283.543073
 51
19.719746
  0
ARC
  8
1
 10
-582.610798
 20
-556.441810
 40
1.500000
 50
19.719746
 51
103.721845
  0
ARC
  8
1
 10
-570.832672
 20
-551.172104
 40
1.500000
 50
165.534374
 51
199.719746
  0
ARC
  8
1
 10
-568.621699
 20
-557.340415
 40
1.500000
 50
199.719746
 51
228.655025
  0
ARC
  8
1
 10
-549.183439
 20
-539.605033
 40
1.500000
 50
179.854108
 51
209.621652
  0
ARC
  8
1
 10
-557.909875
 20
-519.227565
 40
10.000000
 50
180.000000
 51
299.444850
  0
ARC
  8
1
 10
-621.353820
 20
-419.600527
 40
157.877699
 50
100.798919
 51
259.201081
  0
ARC
  8
1
 10
-795.762677
 20
-535.634704
 40
150.000000
 50
344.911094
 51
360.000000
  0
CIRCLE
  8
1
 10
-621.353820
 20
-319.600527
 40
5.870000
  0
CIRCLE
  8
1
 10
-621.353820
 20
-519.600527
 40
5.870000
  0
LINE
  8
1
 10
-621.353820
 20
-533.600527
 11
-621.353820
 21
-525.470527
  0
LINE
  8
1
 10
-621.353820
 20
-513.730527
 11
-621.353820
 21
-505.600527
  0
LINE
  8
1
 10
-621.353820
 20
-333.600527
 11
-621.353820
 21
-325.470527
  0
LINE
  8
1
 10
-621.353820
 20
-313.730527
 11
-621.353820
 21
-305.600527
  0
LINE
  8
1
 10
-483.694482
 20
-414.600527
 11
-479.404278
 21
-414.600527
  0
LINE
  8
1
 10
-479.007484
 20
-400.231807
 11
-477.909815
 21
-412.971765
  0
LINE
  8
1
 10
-477.769482
 20
-414.600527
 11
-463.237485
 21
-415.439867
  0
LINE
  8
1
 10
-479.148562
 20
-398.594396
 11
-465.122523
 21
-396.351284
  0
LINE
  8
1
 10
-463.254859
 20
-415.600527
 11
-490.732154
 21
-415.600527
  0
LINE
  8
1
 10
-479.148562
 20
-398.594396
 11
-486.338957
 21
-399.881816
  0
LINE
  8
1
 10
-486.221436
 20
-401.245810
 11
-485.188945
 21
-413.229290
  0
LINE
  8
1
 10
-486.338957
 20
-399.881816
 11
-491.359753
 21
-401.011458
  0
LINE
  8
1
 10
-485.070800
 20
-414.600527
 11
-490.609512
 21
-415.273315
  0
LINE
  8
1
 10
-483.694482
 20
-424.600527
 11
-479.404278
 21
-424.600527
  0
LINE
  8
1
 10
-479.007484
 20
-438.969247
 11
-477.909815
 21
-426.229290
  0
LINE
  8
1
 10
-477.769482
 20
-424.600527
 11
-463.237485
 21
-423.761187
  0
LINE
  8
1
 10
-479.148562
 20
-440.606659
 11
-465.122523
 21
-442.849771
  0
LINE
  8
1
 10
-463.254859
 20
-423.600527
 11
-490.732154
 21
-423.600527
  0
LINE
  8
1
 10
-479.148562
 20
-440.606659
 11
-486.338957
 21
-439.319239
  0
LINE
  8
1
 10
-486.221436
 20
-437.955244
 11
-485.188945
 21
-425.971765
  0
LINE
  8
1
 10
-486.338957
 20
-439.319239
 11
-491.359753
 21
-438.189597
  0
LINE
  8
1
 10
-485.070800
 20
-424.600527
 11
-490.609512
 21
-423.927740
  0
LINE
  8
1
 10
-484.532653
 20
-374.823280
 11
-481.273635
 21
-387.173729
  0
LINE
  8
1
 10
-484.954002
 20
-373.226526
 11
-471.772324
 21
-369.283537
  0
LINE
  8
1
 10
-480.858663
 20
-388.746319
 11
-466.175798
 21
-387.985604
  0
LINE
  8
1
 10
-491.467369
 20
-377.079624
 11
-488.402027
 21
-388.696118
  0
LINE
  8
1
 10
-484.954002
 20
-373.226526
 11
-491.814997
 21
-375.762247
  0
LINE
  8
1
 10
-482.459623
 20
-389.032966
 11
-486.687306
 21
-389.789920
  0
LINE
  8
1
 10
-491.814997
 20
-375.762247
 11
-496.190373
 21
-378.426495
  0
LINE
  8
1
 10
-488.049058
 20
-390.033738
 11
-493.784227
 21
-392.828128
  0
LINE
  8
1
 10
-468.902374
 20
-388.990715
 11
-493.907175
 21
-393.487640
  0
LINE
  8
1
 10
-468.902374
 20
-388.990715
 11
-465.804528
 21
-388.328468
  0
LINE
  8
1
 10
-484.532653
 20
-464.377774
 11
-481.273635
 21
-452.027326
  0
LINE
  8
1
 10
-484.954002
 20
-465.974529
 11
-471.772324
 21
-469.917518
  0
LINE
  8
1
 10
-480.858663
 20
-450.454736
 11
-466.175798
 21
-451.215451
  0
LINE
  8
1
 10
-491.467369
 20
-462.121431
 11
-488.402027
 21
-450.504937
  0
LINE
  8
1
 10
-484.954002
 20
-465.974529
 11
-491.814997
 21
-463.438808
  0
LINE
  8
1
 10
-482.459623
 20
-450.168089
 11
-486.687306
 21
-449.411134
  0
LINE
  8
1
 10
-491.814997
 20
-463.438808
 11
-496.190373
 21
-460.774560
  0
LINE
  8
1
 10
-488.049058
 20
-449.167317
 11
-493.784227
 21
-446.372927
  0
LINE
  8
1
 10
-468.902374
 20
-450.210340
 11
-493.907175
 21
-445.713415
  0
LINE
  8
1
 10
-468.902374
 20
-450.210340
 11
-465.804528
 21
-450.872587
  0
LINE
  8
1
 10
-494.317640
 20
-350.774087
 11
-488.998033
 21
-362.358005
  0
LINE
  8
1
 10
-500.766073
 20
-354.208197
 11
-495.763087
 21
-365.102647
  0
LINE
  8
1
 10
-495.009405
 20
-349.267706
 11
-501.332532
 21
-352.974682
  0
LINE
  8
1
 10
-489.841171
 20
-364.390973
 11
-493.879950
 21
-365.883645
  0
LINE
  8
1
 10
-483.034220
 20
-343.893813
 11
-495.009405
 21
-349.267706
  0
LINE
  8
1
 10
-501.332532
 20
-352.974682
 11
-505.926727
 21
-358.104216
  0
LINE
  8
1
 10
-495.183237
 20
-366.365321
 11
-500.609377
 21
-371.480451
  0
LINE
  8
1
 10
-476.405936
 20
-363.310967
 11
-500.340644
 21
-372.215077
  0
LINE
  8
1
 10
-473.410713
 20
-362.162865
 11
-476.405936
 21
-363.310967
  0
LINE
  8
1
 10
-473.695494
 20
-361.704996
 11
-488.322243
 21
-363.829599
  0
LINE
  8
1
 10
-494.317640
 20
-488.426968
 11
-488.998033
 21
-476.843049
  0
LINE
  8
1
 10
-500.766073
 20
-484.992858
 11
-495.763087
 21
-474.098408
  0
LINE
  8
1
 10
-495.009405
 20
-489.933349
 11
-501.332532
 21
-486.226373
  0
LINE
  8
1
 10
-489.841171
 20
-474.810082
 11
-493.879950
 21
-473.317410
  0
LINE
  8
1
 10
-483.034220
 20
-495.307242
 11
-495.009405
 21
-489.933349
  0
LINE
  8
1
 10
-501.332532
 20
-486.226373
 11
-505.926727
 21
-481.096838
  0
LINE
  8
1
 10
-495.183237
 20
-472.835734
 11
-500.609377
 21
-467.720604
  0
LINE
  8
1
 10
-476.405936
 20
-475.890088
 11
-500.340644
 21
-466.985978
  0
LINE
  8
1
 10
-473.410713
 20
-477.038190
 11
-476.405936
 21
-475.890088
  0
LINE
  8
1
 10
-473.695494
 20
-477.496059
 11
-488.322243
 21
-475.371455
  0
LINE
  8
1
 10
-508.066120
 20
-328.813612
 11
-500.849921
 21
-339.278395
  0
LINE
  8
1
 10
-509.009243
 20
-327.445913
 11
-514.602378
 21
-332.211510
  0
LINE
  8
1
 10
-501.326162
 20
-341.423942
 11
-505.054257
 21
-343.609563
  0
LINE
  8
1
 10
-507.047752
 20
-343.167073
 11
-513.833550
 21
-333.326448
  0
LINE
  8
1
 10
-509.009243
 20
-327.445913
 11
-497.559159
 21
-320.300934
  0
LINE
  8
1
 10
-514.602378
 20
-332.211510
 11
-518.084207
 21
-339.079806
  0
LINE
  8
1
 10
-506.256571
 20
-344.314428
 11
-510.790913
 21
-351.757115
  0
LINE
  8
1
 10
-488.173866
 20
-339.341548
 11
-510.241648
 21
-352.417577
  0
LINE
  8
1
 10
-485.051099
 20
-337.424234
 11
-488.173866
 21
-339.341548
  0
LINE
  8
1
 10
-485.695159
 20
-337.032555
 11
-499.933444
 21
-340.607452
  0
LINE
  8
1
 10
-508.066120
 20
-510.387443
 11
-500.849921
 21
-499.922659
  0
LINE
  8
1
 10
-509.009243
 20
-511.755142
 11
-514.602378
 21
-506.989545
  0
LINE
  8
1
 10
-501.326162
 20
-497.777112
 11
-505.054257
 21
-495.591491
  0
LINE
  8
1
 10
-507.047752
 20
-496.033982
 11
-513.833550
 21
-505.874606
  0
LINE
  8
1
 10
-509.009243
 20
-511.755142
 11
-497.559159
 21
-518.900121
  0
LINE
  8
1
 10
-514.602378
 20
-506.989545
 11
-518.084207
 21
-500.121249
  0
LINE
  8
1
 10
-506.256571
 20
-494.886627
 11
-510.790913
 21
-487.443940
  0
LINE
  8
1
 10
-488.173866
 20
-499.859507
 11
-510.241648
 21
-486.783478
  0
LINE
  8
1
 10
-485.051099
 20
-501.776820
 11
-488.173866
 21
-499.859507
  0
LINE
  8
1
 10
-485.695159
 20
-502.168500
 11
-499.933444
 21
-498.593603
  0
LINE
  8
1
 10
-526.528139
 20
-308.424192
 11
-516.858314
 21
-300.241445
  0
LINE
  8
1
 10
-525.361874
 20
-309.608448
 11
-516.470696
 21
-318.636788
  0
LINE
  8
1
 10
-521.911869
 20
-323.556689
 11
-530.271485
 21
-315.068113
  0
LINE
  8
1
 10
-519.870295
 20
-323.645935
 11
-516.566616
 21
-320.831055
  0
LINE
  8
1
 10
-526.528139
 20
-308.424192
 11
-531.221336
 21
-314.103609
  0
LINE
  8
1
 10
-531.221336
 20
-314.103609
 11
-533.209808
 21
-322.591274
  0
LINE
  8
1
 10
-523.984055
 20
-334.166645
 11
-520.932600
 21
-324.551066
  0
LINE
  8
1
 10
-503.807035
 20
-317.810758
 11
-523.446008
 21
-334.851095
  0
LINE
  8
1
 10
-500.939227
 20
-315.204978
 11
-503.807035
 21
-317.810758
  0
LINE
  8
1
 10
-501.721071
 20
-314.849558
 11
-515.339466
 21
-319.785469
  0
LINE
  8
1
 10
-526.528139
 20
-530.776863
 11
-516.858314
 21
-538.959610
  0
LINE
  8
1
 10
-525.361874
 20
-529.592606
 11
-516.470696
 21
-520.564267
  0
LINE
  8
1
 10
-521.911869
 20
-515.644365
 11
-530.271485
 21
-524.132941
  0
LINE
  8
1
 10
-519.870295
 20
-515.555120
 11
-516.566616
 21
-518.370000
  0
LINE
  8
1
 10
-526.528139
 20
-530.776863
 11
-531.221336
 21
-525.097446
  0
LINE
  8
1
 10
-531.221336
 20
-525.097446
 11
-533.209808
 21
-516.609781
  0
LINE
  8
1
 10
-523.984055
 20
-505.034409
 11
-520.932600
 21
-514.649989
  0
LINE
  8
1
 10
-503.807035
 20
-521.390297
 11
-523.446008
 21
-504.349960
  0
LINE
  8
1
 10
-500.939227
 20
-523.996077
 11
-503.807035
 21
-521.390297
  0
LINE
  8
1
 10
-501.721071
 20
-524.351497
 11
-515.339466
 21
-519.415586
  0
LINE
  8
1
 10
-545.681032
 20
-293.742330
 11
-535.386738
 21
-301.061670
  0
LINE
  8
1
 10
-534.072204
 20
-301.996315
 11
-521.206912
 21
-295.830413
  0
LINE
  8
1
 10
-547.033790
 20
-292.780507
 11
-537.491952
 21
-285.406925
  0
LINE
  8
1
 10
-549.579679
 20
-299.986680
 11
-539.902296
 21
-306.867390
  0
LINE
  8
1
 10
-535.099649
 20
-303.239666
 11
-537.876800
 21
-306.600403
  0
LINE
  8
1
 10
-550.487401
 20
-298.854616
 11
-547.033790
 21
-292.780507
  0
LINE
  8
1
 10
-538.765401
 20
-307.675733
 11
-539.719660
 21
-319.206162
  0
LINE
  8
1
 10
-550.683434
 20
-299.599841
 11
-550.656950
 21
-310.000529
  0
LINE
  8
1
 10
-522.745013
 20
-299.372798
 11
-539.072048
 21
-319.788016
  0
LINE
  8
1
 10
-522.745013
 20
-299.372798
 11
-520.544377
 21
-296.429639
  0
LINE
  8
1
 10
-545.681032
 20
-545.458725
 11
-535.386738
 21
-538.139385
  0
LINE
  8
1
 10
-534.072204
 20
-537.204739
 11
-521.206912
 21
-543.370642
  0
LINE
  8
1
 10
-547.033790
 20
-546.420548
 11
-537.491952
 21
-553.794129
  0
LINE
  8
1
 10
-549.579679
 20
-539.214374
 11
-539.902296
 21
-532.333664
  0
LINE
  8
1
 10
-535.099649
 20
-535.961389
 11
-537.876800
 21
-532.600652
  0
LINE
  8
1
 10
-550.487401
 20
-540.346439
 11
-547.033790
 21
-546.420548
  0
LINE
  8
1
 10
-538.765401
 20
-531.525322
 11
-539.719660
 21
-519.994893
  0
LINE
  8
1
 10
-550.683434
 20
-539.601213
 11
-550.656950
 21
-529.200526
  0
LINE
  8
1
 10
-522.745013
 20
-539.828257
 11
-539.072048
 21
-519.413039
  0
LINE
  8
1
 10
-522.745013
 20
-539.828257
 11
-520.544377
 21
-542.771415
  0
LINE
  8
1
 10
-568.407541
 20
-281.698353
 11
-557.023532
 21
-287.088695
  0
LINE
  8
1
 10
-555.562475
 20
-287.780507
 11
-543.890974
 21
-280.842991
  0
LINE
  8
1
 10
-561.287007
 20
-273.408735
 11
-569.612585
 21
-280.734521
  0
LINE
  8
1
 10
-560.471079
 20
-293.605540
 11
-571.171448
 21
-288.538902
  0
LINE
  8
1
 10
-558.525190
 20
-292.991243
 11
-556.361497
 21
-289.185803
  0
LINE
  8
1
 10
-570.033730
 20
-281.354510
 11
-572.244704
 21
-287.522821
  0
LINE
  8
1
 10
-572.285119
 20
-288.403649
 11
-569.322148
 21
-299.889029
  0
LINE
  8
1
 10
-557.376681
 20
-306.867040
 11
-559.213134
 21
-294.201178
  0
LINE
  8
1
 10
-544.217619
 20
-284.587897
 11
-556.542354
 21
-307.715367
  0
LINE
  8
1
 10
-544.217619
 20
-284.587897
 11
-542.505522
 21
-280.973911
  0
LINE
  8
1
 10
-568.407541
 20
-557.502702
 11
-557.023532
 21
-552.112360
  0
LINE
  8
1
 10
-555.562475
 20
-551.420548
 11
-543.890974
 21
-558.358064
  0
LINE
  8
1
 10
-561.287007
 20
-565.792320
 11
-569.612585
 21
-558.466534
  0
LINE
  8
1
 10
-560.471079
 20
-545.595515
 11
-571.171448
 21
-550.662152
  0
LINE
  8
1
 10
-558.525190
 20
-546.209812
 11
-556.361497
 21
-550.015252
  0
LINE
  8
1
 10
-570.033730
 20
-557.846545
 11
-572.244704
 21
-551.678234
  0
LINE
  8
1
 10
-572.285119
 20
-550.797406
 11
-569.322148
 21
-539.312026
  0
LINE
  8
1
 10
-557.376681
 20
-532.334015
 11
-559.213134
 21
-544.999876
  0
LINE
  8
1
 10
-544.217619
 20
-554.613158
 11
-556.542354
 21
-531.485687
  0
LINE
  8
1
 10
-544.217619
 20
-554.613158
 11
-542.505522
 21
-558.227143
  0
LINE
  8
1
 10
-579.322810
 20
-278.031715
 11
-581.457235
 21
-283.986464
  0
LINE
  8
1
 10
-578.750976
 20
-277.295239
 11
-567.517105
 21
-269.699370
  0
LINE
  8
1
 10
-581.427306
 20
-285.075510
 11
-575.727421
 21
-298.590006
  0
LINE
  8
1
 10
-567.027946
 20
-273.905287
 11
-566.150387
 21
-270.054061
  0
LINE
  8
1
 10
-602.805812
 20
-271.873673
 11
-602.805812
 21
-279.372142
  0
LINE
  8
1
 10
-580.781933
 20
-277.178653
 11
-598.210870
 21
-272.980475
  0
LINE
  8
1
 10
-582.966611
 20
-284.216432
 11
-595.382561
 21
-281.184735
  0
LINE
  8
1
 10
-598.650890
 20
-285.238655
 11
-591.773421
 21
-294.949251
  0
LINE
  8
1
 10
-600.415263
 20
-269.602998
 11
-591.773421
 21
-261.394504
  0
ARC
  8
1
 10
-588.773421
 20
-298.804085
 40
3.000000
 50
74.905740
 51
180.000000
  0
ARC
  8
1
 10
-596.805812
 20
-287.013487
 40
6.000000
 50
76.278155
 51
180.000000
  0
ARC
  8
1
 10
-596.805812
 20
-267.147310
 40
6.000000
 50
180.000000
 51
256.456927
  0
ARC
  8
1
 10
-589.078370
 20
-258.861213
 40
3.000000
 50
191.204282
 51
258.646345
  0
LINE
  8
1
 10
-574.795524
 20
-299.229840
 11
-571.914978
 21
-289.838426
  0
LINE
  8
1
 10
-568.941499
 20
-280.144023
 11
-567.027946
 21
-273.905287
  0
LINE
  8
1
 10
-579.322810
 20
-561.169339
 11
-581.457235
 21
-555.214591
  0
LINE
  8
1
 10
-578.750976
 20
-561.905815
 11
-567.517105
 21
-569.501685
  0
LINE
  8
1
 10
-581.427306
 20
-554.125544
 11
-575.727421
 21
-540.611048
  0
LINE
  8
1
 10
-567.027946
 20
-565.295768
 11
-566.150387
 21
-569.146994
  0
LINE
  8
1
 10
-602.805812
 20
-567.327382
 11
-602.805812
 21
-559.828912
  0
LINE
  8
1
 10
-580.781933
 20
-562.022402
 11
-598.210870
 21
-566.220580
  0
LINE
  8
1
 10
-582.966611
 20
-554.984622
 11
-595.382561
 21
-558.016320
  0
LINE
  8
1
 10
-598.650890
 20
-553.962399
 11
-591.773421
 21
-544.251804
  0
LINE
  8
1
 10
-600.415263
 20
-569.598057
 11
-591.773421
 21
-577.806551
  0
ARC
  8
1
 10
-588.773421
 20
-540.396969
 40
3.000000
 50
180.000000
 51
285.094260
  0
ARC
  8
1
 10
-596.805812
 20
-552.187568
 40
6.000000
 50
180.000000
 51
283.721845
  0
ARC
  8
1
 10
-596.805812
 20
-572.053745
 40
6.000000
 50
103.543073
 51
180.000000
  0
ARC
  8
1
 10
-589.078370
 20
-580.339842
 40
3.000000
 50
101.353655
 51
168.795718
  0
LINE
  8
1
 10
-574.795524
 20
-539.971215
 11
-571.914978
 21
-549.362628
  0
LINE
  8
1
 10
-568.941499
 20
-559.057032
 11
-567.027946
 21
-565.295768
  0
LINE
  8
1
 10
-683.853820
 20
-61.600527
 11
-620.833409
 21
-61.600527
  0
LINE
  8
1
 10
-575.829251
 20
-61.600527
 11
-558.853820
 21
-61.600527
  0
LINE
  8
1
 10
-848.353820
 20
551.383078
 11
-844.353820
 21
551.383078
  0
LINE
  8
1
  6
DASHED
 10
-844.353820
 20
551.383078
 11
-802.299300
 21
551.383078
  0
LINE
  8
1
 10
-848.353820
 20
539.383078
 11
-844.353820
 21
539.383078
  0
LINE
  8
1
  6
DASHED
 10
-844.353820
 20
539.383078
 11
-802.299300
 21
539.383078
  0
LINE
  8
1
  6
DASHED
 10
-564.585486
 20
593.883078
 11
-477.353820
 21
593.883078
  0
LINE
  8
1
 10
-477.353820
 20
593.883078
 11
-432.853820
 21
593.883078
  0
LINE
  8
1
 10
-413.764577
 20
591.383078
 11
-477.353820
 21
591.383078
  0
LINE
  8
1
  6
DASHED
 10
-477.353820
 20
591.383078
 11
-563.023517
 21
591.383078
  0
LINE
  8
1
 10
-413.764577
 20
499.383078
 11
-477.353820
 21
499.383078
  0
LINE
  8
1
  6
DASHED
 10
-477.353820
 20
499.383078
 11
-563.023517
 21
499.383078
  0
LINE
  8
1
  6
DASHED
 10
-564.585486
 20
496.883078
 11
-477.353820
 21
496.883078
  0
LINE
  8
1
 10
-477.353820
 20
496.883078
 11
-432.853820
 21
496.883078
  0
LINE
  8
2
 10
45.506389
 20
123.399473
 11
185.506389
 21
123.399473
  0
LINE
  8
2
 10
15.506389
 20
-35.600527
 11
15.506389
 21
112.415764
  0
LINE
  8
2
 10
205.506389
 20
73.399473
 11
32.506389
 21
73.399473
  0
LINE
  8
2
 10
185.506389
 20
88.399473
 11
205.506389
 21
88.399473
  0
LINE
  8
2
 10
17.506389
 20
-37.600527
 11
213.506389
 21
-37.600527
  0
LINE
  8
2
 10
15.506389
 20
38.399473
 11
228.506389
 21
38.399473
  0
LINE
  8
2
 10
17.506389
 20
-37.600527
 11
17.506389
 21
-36.600527
  0
LINE
  8
2
 10
-89.493611
 20
46.399473
 11
-93.993611
 21
46.399473
  0
LINE
  8
2
 10
-93.993611
 20
30.399473
 11
-89.493611
 21
30.399473
  0
CIRCLE
  8
2
 10
140.506389
 20
103.399473
 40
13.000000
  0
LINE
  8
2
 10
133.000836
 20
116.399473
 11
125.495282
 21
103.399473
  0
LINE
  8
2
 10
148.011943
 20
116.399473
 11
133.000836
 21
116.399473
  0
LINE
  8
2
 10
155.517496
 20
103.399473
 11
148.011943
 21
116.399473
  0
LINE
  8
2
 10
148.011943
 20
90.399473
 11
155.517496
 21
103.399473
  0
LINE
  8
2
 10
133.000836
 20
90.399473
 11
148.011943
 21
90.399473
  0
LINE
  8
2
 10
125.495282
 20
103.399473
 11
133.000836
 21
90.399473
  0
CIRCLE
  8
2
 10
90.506389
 20
103.399473
 40
13.000000
  0
LINE
  8
2
 10
83.000836
 20
116.399473
 11
75.495282
 21
103.399473
  0
LINE
  8
2
 10
98.011943
 20
116.399473
 11
83.000836
 21
116.399473
  0
LINE
  8
2
 10
105.517496
 20
103.399473
 11
98.011943
 21
116.399473
  0
LINE
  8
2
 10
98.011943
 20
90.399473
 11
105.517496
 21
103.399473
  0
LINE
  8
2
 10
83.000836
 20
90.399473
 11
98.011943
 21
90.399473
  0
LINE
  8
2
 10
75.495282
 20
103.399473
 11
83.000836
 21
90.399473
  0
LINE
  8
2
 10
-623.353820
 20
182.899473
 11
-623.353820
 21
174.599473
  0
LINE
  8
2
 10
-619.353820
 20
182.899473
 11
-619.353820
 21
174.599473
  0
ARC
  8
2
 10
-621.353820
 20
161.399473
 40
34.000000
 50
22.844739
 51
157.155261
  0
ARC
  8
2
 10
115.506389
 20
161.399473
 40
34.000000
 50
45.099128
 51
134.900872
  0
LINE
  8
2
 10
123.006384
 20
193.004958
 11
123.006389
 21
174.599473
  0
LINE
  8
2
 10
108.006389
 20
193.004958
 11
108.006389
 21
174.599473
  0
LINE
  8
2
 10
91.506389
 20
185.482662
 11
91.506389
 21
183.756574
  0
LINE
  8
2
 10
139.506389
 20
185.482662
 11
139.506389
 21
183.756574
  0
ARC
  8
2
 10
-621.353820
 20
159.899473
 40
28.000000
 50
34.712682
 51
81.884254
  0
ARC
  8
2
 10
-621.353820
 20
159.899473
 40
28.000000
 50
98.115746
 51
145.287318
  0
ARC
  8
2
 10
115.506389
 20
163.399473
 40
31.000000
 50
28.453097
 51
48.922243
  0
ARC
  8
2
 10
115.506389
 20
163.399473
 40
31.000000
 50
131.077757
 51
151.546903
  0
ARC
  8
2
 10
115.506389
 20
159.899473
 40
28.000000
 50
105.536794
 51
145.287318
  0
ARC
  8
2
 10
115.506389
 20
159.899473
 40
28.000000
 50
34.712682
 51
74.463206
  0
ARC
  8
2
 10
-622.353820
 20
182.899473
 40
1.000000
 50
90.000000
 51
180.000000
  0
ARC
  8
2
 10
-620.353820
 20
182.899473
 40
1.000000
 50
0.000000
 51
90.000000
  0
LINE
  8
2
 10
-622.353820
 20
183.899473
 11
-621.989053
 21
183.899478
  0
LINE
  8
2
 10
-620.718353
 20
183.899587
 11
-620.353820
 21
183.899473
  0
ARC
  8
2
 10
-585.953425
 20
164.165102
 40
45.274917
 50
159.102140
 51
166.675437
  0
ARC
  8
2
 10
-586.877304
 20
164.165102
 40
45.274917
 50
158.681079
 51
166.675437
  0
ARC
  8
2
 10
-628.652656
 20
180.468526
 40
0.430947
 50
339.102140
 51
158.681079
  0
ARC
  8
2
 10
-609.923891
 20
162.398220
 40
30.472934
 50
143.677597
 51
156.397040
  0
ARC
  8
2
 10
-610.630997
 20
162.398220
 40
30.472934
 50
142.882669
 51
156.397040
  0
ARC
  8
2
 10
-634.704172
 20
180.616069
 40
0.283404
 50
323.677597
 51
142.882669
  0
ARC
  8
2
 10
-618.679478
 20
160.631339
 40
28.197761
 50
134.711482
 51
150.306296
  0
ARC
  8
2
 10
-619.062162
 20
160.631339
 40
28.197761
 50
134.156238
 51
150.306296
  0
ARC
  8
2
 10
-638.611894
 20
180.765516
 40
0.133957
 50
314.711482
 51
134.156238
  0
ARC
  8
2
 10
80.105994
 20
164.165102
 40
45.274917
 50
13.324563
 51
18.638604
  0
ARC
  8
2
 10
81.029874
 20
164.165102
 40
45.274917
 50
13.324563
 51
21.318921
  0
ARC
  8
2
 10
122.805226
 20
180.468526
 40
0.430947
 50
21.318921
 51
62.173379
  0
ARC
  8
2
 10
104.076460
 20
162.398220
 40
30.472934
 50
23.602960
 51
36.322403
  0
ARC
  8
2
 10
104.783567
 20
162.398220
 40
30.472934
 50
23.602960
 51
37.117331
  0
ARC
  8
2
 10
128.856741
 20
180.616069
 40
0.283404
 50
37.117331
 51
216.322403
  0
ARC
  8
2
 10
112.832048
 20
160.631339
 40
28.197761
 50
29.693704
 51
45.288518
  0
ARC
  8
2
 10
113.214731
 20
160.631339
 40
28.197761
 50
29.693704
 51
45.843762
  0
ARC
  8
2
 10
132.764464
 20
180.765516
 40
0.133957
 50
45.843762
 51
225.288518
  0
LINE
  8
2
 10
73.006389
 20
174.599473
 11
158.006389
 21
174.599473
  0
LINE
  8
2
 10
-578.853820
 20
174.599473
 11
-663.853820
 21
174.599473
  0
ARC
  8
2
 10
-621.353820
 20
161.399473
 40
33.162479
 50
104.962752
 51
150.128593
  0
ARC
  8
2
 10
-615.799271
 20
193.389336
 40
10.000000
 50
202.238154
 51
227.992896
  0
ARC
  8
2
 10
-629.141501
 20
190.539259
 40
3.000000
 50
42.388379
 51
104.962752
  0
ARC
  8
2
 10
-634.311646
 20
185.820191
 40
10.000000
 50
22.238154
 51
42.388379
  0
ARC
  8
2
 10
-626.908368
 20
193.389336
 40
10.000000
 50
312.007104
 51
337.761846
  0
ARC
  8
2
 10
-608.395993
 20
185.820191
 40
10.000000
 50
137.611621
 51
157.761846
  0
ARC
  8
2
 10
-613.566138
 20
190.539259
 40
3.000000
 50
75.037248
 51
137.611621
  0
ARC
  8
2
 10
-621.353820
 20
161.399473
 40
33.162479
 50
29.871407
 51
75.037248
  0
ARC
  8
2
 10
-621.353820
 20
187.221922
 40
1.700000
 50
227.992896
 51
312.007104
  0
ARC
  8
2
 10
-620.878929
 20
160.576938
 40
32.849358
 50
105.470231
 51
147.621493
  0
ARC
  8
2
 10
-614.845319
 20
193.497833
 40
12.000000
 50
200.135943
 51
231.694293
  0
ARC
  8
2
 10
-631.745132
 20
187.301356
 40
6.000000
 50
20.135943
 51
48.747449
  0
ARC
  8
2
 10
-629.107615
 20
190.308598
 40
2.000000
 50
48.747449
 51
105.470231
  0
ARC
  8
2
 10
-627.862320
 20
193.497833
 40
12.000000
 50
308.305707
 51
339.864057
  0
ARC
  8
2
 10
-610.962507
 20
187.301356
 40
6.000000
 50
131.252551
 51
159.864057
  0
ARC
  8
2
 10
-613.600025
 20
190.308598
 40
2.000000
 50
74.529769
 51
131.252551
  0
ARC
  8
2
 10
-621.828710
 20
160.576938
 40
32.849358
 50
32.378507
 51
74.529769
  0
ARC
  8
2
 10
-621.353820
 20
185.258329
 40
1.500000
 50
231.694293
 51
308.305707
  0
ARC
  8
2
 10
107.222601
 20
182.078504
 40
11.430139
 50
88.512215
 51
112.714662
  0
ARC
  8
2
 10
107.506389
 20
193.004958
 40
0.500000
 50
0.000000
 51
88.512215
  0
ARC
  8
2
 10
118.342762
 20
155.513999
 40
40.228245
 50
112.714662
 51
131.843847
  0
ARC
  8
2
 10
108.712603
 20
175.182528
 40
17.127052
 50
93.791923
 51
118.737001
  0
ARC
  8
2
 10
107.606389
 20
191.872961
 40
0.400000
 50
0.000000
 51
93.791923
  0
ARC
  8
2
 10
122.424953
 20
150.174763
 40
45.647515
 50
118.737001
 51
132.635576
  0
ARC
  8
2
 10
122.300175
 20
175.182528
 40
17.127052
 50
61.262999
 51
86.208077
  0
ARC
  8
2
 10
108.587826
 20
150.174763
 40
45.647515
 50
47.364424
 51
61.262999
  0
ARC
  8
2
 10
123.406389
 20
191.872961
 40
0.400000
 50
86.208077
 51
180.000000
  0
ARC
  8
2
 10
123.506389
 20
193.004958
 40
0.500000
 50
91.487785
 51
180.000000
  0
ARC
  8
2
 10
123.790177
 20
182.078504
 40
11.430139
 50
67.285338
 51
91.487785
  0
ARC
  8
2
 10
112.670016
 20
155.513999
 40
40.228245
 50
48.156153
 51
67.285338
  0
LINE
  8
2
  6
CENTER
 62
2
 10
142.022893
 20
165.744290
 11
142.022893
 21
181.355748
  0
LINE
  8
2
  6
CENTER
 62
2
 10
88.989885
 20
165.744290
 11
88.989885
 21
182.749638
  0
LINE
  8
2
  6
CENTER
 62
2
 10
-647.870324
 20
181.314919
 11
-647.870324
 21
164.894494
  0
LINE
  8
2
  6
CENTER
 62
2
 10
-594.837315
 20
181.744775
 11
-594.837315
 21
164.894494
  0
LINE
  8
2
 10
-591.037315
 20
175.599473
 11
-598.637315
 21
175.599473
  0
LINE
  8
2
 10
-591.037315
 20
175.599473
 11
-591.037315
 21
174.599473
  0
LINE
  8
2
 10
-598.637315
 20
175.599473
 11
-598.637315
 21
174.599473
  0
LINE
  8
2
 10
-591.337315
 20
176.578497
 11
-591.337315
 21
175.599473
  0
LINE
  8
2
 10
-598.337315
 20
176.578497
 11
-598.337315
 21
175.599473
  0
ARC
  8
2
 10
-594.837315
 20
169.199473
 40
9.000000
 50
73.398450
 51
106.601550
  0
ARC
  8
2
 10
-592.637315
 20
176.578497
 40
1.300000
 50
0.000000
 51
73.398450
  0
ARC
  8
2
 10
-597.037315
 20
176.578497
 40
1.300000
 50
106.601550
 51
180.000000
  0
LINE
  8
2
 10
-644.070324
 20
175.599473
 11
-651.670324
 21
175.599473
  0
LINE
  8
2
 10
-644.070324
 20
175.599473
 11
-644.070324
 21
174.599473
  0
LINE
  8
2
 10
-651.670324
 20
175.599473
 11
-651.670324
 21
174.599473
  0
LINE
  8
2
 10
-644.370324
 20
176.578497
 11
-644.370324
 21
175.599473
  0
LINE
  8
2
 10
-651.370324
 20
176.578497
 11
-651.370324
 21
175.599473
  0
ARC
  8
2
 10
-647.870324
 20
169.199473
 40
9.000000
 50
73.398450
 51
106.601550
  0
ARC
  8
2
 10
-645.670324
 20
176.578497
 40
1.300000
 50
0.000000
 51
73.398450
  0
ARC
  8
2
 10
-650.070324
 20
176.578497
 40
1.300000
 50
106.601550
 51
180.000000
  0
LINE
  8
2
 10
92.789885
 20
175.599473
 11
85.189885
 21
175.599473
  0
LINE
  8
2
 10
92.789885
 20
175.599473
 11
92.789885
 21
174.599473
  0
LINE
  8
2
 10
85.189885
 20
175.599473
 11
85.189885
 21
174.599473
  0
LINE
  8
2
 10
92.489885
 20
176.578497
 11
92.489885
 21
175.599473
  0
LINE
  8
2
 10
85.489885
 20
176.578497
 11
85.489885
 21
175.599473
  0
ARC
  8
2
 10
88.989885
 20
169.199473
 40
9.000000
 50
73.398450
 51
106.601550
  0
ARC
  8
2
 10
91.189885
 20
176.578497
 40
1.300000
 50
0.000000
 51
73.398450
  0
ARC
  8
2
 10
86.789885
 20
176.578497
 40
1.300000
 50
106.601550
 51
180.000000
  0
LINE
  8
2
 10
145.822893
 20
175.599473
 11
138.222893
 21
175.599473
  0
LINE
  8
2
 10
145.822893
 20
175.599473
 11
145.822893
 21
174.599473
  0
LINE
  8
2
 10
138.222893
 20
175.599473
 11
138.222893
 21
174.599473
  0
LINE
  8
2
 10
145.522893
 20
176.578497
 11
145.522893
 21
175.599473
  0
LINE
  8
2
 10
138.522893
 20
176.578497
 11
138.522893
 21
175.599473
  0
ARC
  8
2
 10
142.022893
 20
169.199473
 40
9.000000
 50
73.398450
 51
106.601550
  0
ARC
  8
2
 10
144.222893
 20
176.578497
 40
1.300000
 50
0.000000
 51
73.398450
  0
ARC
  8
2
 10
139.822893
 20
176.578497
 40
1.300000
 50
106.601550
 51
180.000000
  0
LINE
  8
2
 10
-574.815344
 20
168.399473
 11
-729.971008
 21
168.399473
  0
LINE
  8
2
 10
-635.353820
 20
163.399473
 11
-635.353820
 21
129.399473
  0
LINE
  8
2
 10
-621.353820
 20
163.399473
 11
-621.353820
 21
137.886909
  0
LINE
  8
2
 10
-578.853820
 20
173.399473
 11
-663.853820
 21
173.399473
  0
LINE
  8
2
 10
-663.853820
 20
174.599473
 11
-663.853820
 21
171.399473
  0
LINE
  8
2
 10
-578.853820
 20
174.599473
 11
-578.853820
 21
171.399473
  0
ARC
  8
2
 10
-575.853820
 20
171.399473
 40
3.000000
 50
180.000000
 51
270.000000
  0
ARC
  8
2
 10
-666.853820
 20
171.399473
 40
3.000000
 50
270.000000
 51
360.000000
  0
LINE
  8
2
 10
158.506389
 20
103.399473
 11
158.506389
 21
75.399473
  0
LINE
  8
2
 10
122.506389
 20
103.399473
 11
122.506389
 21
75.399473
  0
LINE
  8
2
 10
108.506389
 20
103.399473
 11
108.506389
 21
75.399473
  0
LINE
  8
2
 10
72.506389
 20
103.399473
 11
72.506389
 21
75.399473
  0
ARC
  8
2
 10
140.506389
 20
103.399473
 40
18.000000
 50
0.000000
 51
180.000000
  0
ARC
  8
2
 10
90.506389
 20
103.399473
 40
18.000000
 50
0.000000
 51
180.000000
  0
ARC
  8
2
 10
160.506389
 20
75.399473
 40
2.000000
 50
180.000000
 51
270.000000
  0
ARC
  8
2
 10
120.506389
 20
75.399473
 40
2.000000
 50
270.000000
 51
0.000000
  0
ARC
  8
2
 10
110.506389
 20
75.399473
 40
2.000000
 50
180.000000
 51
270.000000
  0
ARC
  8
2
 10
70.506389
 20
75.399473
 40
2.000000
 50
270.000000
 51
360.000000
  0
LINE
  8
2
 10
215.506389
 20
78.399473
 11
215.506389
 21
38.399473
  0
ARC
  8
2
 10
205.506389
 20
78.399473
 40
10.000000
 50
0.000000
 51
90.000000
  0
ARC
  8
2
 10
205.506389
 20
63.399473
 40
10.000000
 50
0.000000
 51
90.000000
  0
LINE
  8
2
 10
110.006389
 20
66.399473
 11
121.006389
 21
66.399473
  0
LINE
  8
2
 10
196.006389
 20
66.399473
 11
213.443643
 21
66.399473
  0
LINE
  8
2
 10
195.506389
 20
72.899473
 11
195.506389
 21
66.899473
  0
LINE
  8
2
 10
121.506389
 20
71.399473
 11
121.506389
 21
66.899473
  0
LINE
  8
2
 10
109.506389
 20
71.399473
 11
109.506389
 21
66.899473
  0
ARC
  8
2
 10
121.006389
 20
66.899473
 40
0.500000
 50
270.000000
 51
360.000000
  0
ARC
  8
2
 10
110.006389
 20
66.899473
 40
0.500000
 50
180.000000
 51
270.000000
  0
ARC
  8
2
 10
123.506389
 20
71.399473
 40
2.000000
 50
90.000000
 51
180.000000
  0
ARC
  8
2
 10
107.506389
 20
71.399473
 40
2.000000
 50
0.000000
 51
90.000000
  0
ARC
  8
2
 10
196.006389
 20
66.899473
 40
0.500000
 50
180.000000
 51
270.000000
  0
ARC
  8
2
 10
195.006389
 20
72.899473
 40
0.500000
 50
0.000000
 51
90.000000
  0
ARC
  8
2
 10
213.443643
 20
64.399473
 40
2.000000
 50
7.180756
 51
90.000000
  0
LINE
  8
2
 10
27.506389
 20
-33.600527
 11
27.506389
 21
109.415764
  0
LINE
  8
2
 10
7.506389
 20
112.415764
 11
24.506389
 21
112.415764
  0
LINE
  8
2
 10
7.506389
 20
-35.600527
 11
25.506389
 21
-35.600527
  0
ARC
  8
2
 10
24.506389
 20
109.415764
 40
3.000000
 50
0.000000
 51
90.000000
  0
ARC
  8
2
 10
32.506389
 20
78.399473
 40
5.000000
 50
180.000000
 51
270.000000
  0
ARC
  8
2
 10
25.506389
 20
-33.600527
 40
2.000000
 50
270.000000
 51
360.000000
  0
LINE
  8
2
 10
185.506389
 20
123.399473
 11
185.506389
 21
78.399473
  0
LINE
  8
2
 10
45.506389
 20
123.399473
 11
45.506389
 21
91.399473
  0
ARC
  8
2
 10
190.506389
 20
78.399473
 40
5.000000
 50
180.000000
 51
270.000000
  0
LINE
  8
2
 10
30.506389
 20
86.399473
 11
40.506389
 21
86.399473
  0
ARC
  8
2
 10
40.506389
 20
91.399473
 40
5.000000
 50
270.000000
 51
360.000000
  0
ARC
  8
2
 10
30.506389
 20
89.399473
 40
3.000000
 50
180.000000
 51
270.000000
  0
LINE
  8
2
 10
27.506389
 20
97.559885
 11
42.506389
 21
97.559885
  0
ARC
  8
2
 10
42.506389
 20
100.559885
 40
3.000000
 50
270.000000
 51
360.000000
  0
ARC
  8
2
 10
16.506389
 20
-36.600527
 40
1.000000
 50
0.000000
 51
90.000000
  0
LINE
  8
2
 10
228.506389
 20
38.399473
 11
228.506389
 21
4.399473
  0
LINE
  8
2
 10
217.507428
 20
3.399473
 11
227.506389
 21
3.399473
  0
ARC
  8
2
 10
227.506389
 20
4.399473
 40
1.000000
 50
270.000000
 51
360.000000
  0
LINE
  8
2
 10
215.506389
 20
38.399473
 11
213.506389
 21
-37.600527
  0
ARC
  8
2
 10
217.507428
 20
0.399473
 40
3.000000
 50
90.000000
 51
178.492564
  0
LINE
  8
2
 10
223.506389
 20
38.399473
 11
223.506389
 21
6.399473
  0
ARC
  8
2
 10
220.506389
 20
6.399473
 40
3.000000
 50
270.000000
 51
360.000000
  0
LINE
  8
2
 10
228.506389
 20
30.399473
 11
241.506389
 21
30.399473
  0
LINE
  8
2
 10
228.506389
 20
18.399473
 11
240.149616
 21
18.399473
  0
ARC
  8
2
 10
227.561230
 20
24.399473
 40
13.945159
 50
334.516139
 51
25.483861
  0
LINE
  8
2
 10
228.506389
 20
6.399473
 11
241.506389
 21
6.399473
  0
LINE
  8
2
 10
241.506389
 20
6.399473
 11
241.506389
 21
30.399473
  0
ARC
  8
2
 10
227.561230
 20
12.399473
 40
13.945159
 50
334.516139
 51
25.483861
  0
LINE
  8
2
 10
251.506389
 20
11.481973
 11
250.423889
 21
10.399473
  0
LINE
  8
2
 10
250.423889
 20
10.399473
 11
241.506389
 21
10.399473
  0
LINE
  8
2
 62
2
 10
251.506389
 20
11.481973
 11
241.506389
 21
11.481973
  0
LINE
  8
2
 10
251.506389
 20
11.481973
 11
251.506389
 21
25.316973
  0
LINE
  8
2
 10
251.506389
 20
25.316973
 11
250.423889
 21
26.399473
  0
LINE
  8
2
 10
250.423889
 20
26.399473
 11
241.506389
 21
26.399473
  0
LINE
  8
2
 10
250.423889
 20
26.399473
 11
250.423889
 21
10.399473
  0
LINE
  8
2
 62
2
 10
251.506389
 20
25.316973
 11
241.506389
 21
25.316973
  0
LINE
  8
2
 10
46.860164
 20
128.399473
 11
184.152615
 21
128.399473
  0
LINE
  8
2
 10
54.025035
 20
168.399473
 11
176.987743
 21
168.399473
  0
LINE
  8
2
 10
73.006389
 20
173.399473
 11
158.006389
 21
173.399473
  0
LINE
  8
2
 10
158.006389
 20
174.599473
 11
158.006389
 21
171.399473
  0
LINE
  8
2
 10
73.006389
 20
174.599473
 11
73.006389
 21
171.399473
  0
ARC
  8
2
 10
161.006389
 20
171.399473
 40
3.000000
 50
180.000000
 51
270.000000
  0
ARC
  8
2
 10
70.006389
 20
171.399473
 40
3.000000
 50
270.000000
 51
360.000000
  0
LINE
  8
2
 10
171.506389
 20
165.399473
 11
171.506389
 21
129.399473
  0
LINE
  8
2
 10
59.506389
 20
165.399473
 11
59.506389
 21
129.399473
  0
LINE
  8
2
 10
5.506389
 20
-33.600527
 11
5.506389
 21
110.415764
  0
LINE
  8
2
 10
-9.493611
 20
-25.120623
 11
-9.493611
 21
101.935859
  0
LINE
  8
2
 10
-42.493611
 20
-16.996565
 11
-42.493611
 21
92.703840
  0
ARC
  8
2
 10
7.506389
 20
110.415764
 40
2.000000
 50
90.000000
 51
180.000000
  0
ARC
  8
2
 10
7.506389
 20
-33.600527
 40
2.000000
 50
180.000000
 51
270.000000
  0
LINE
  8
2
 10
-36.805688
 20
98.695719
 11
-12.278061
 21
99.973199
  0
LINE
  8
2
 10
3.611061
 20
108.316434
 11
-3.807627
 21
107.927637
  0
ARC
  8
2
 10
-36.493611
 20
92.703840
 40
6.000000
 50
92.981461
 51
180.000000
  0
ARC
  8
2
 10
-3.493611
 20
101.935859
 40
6.000000
 50
93.000000
 51
180.000000
  0
ARC
  8
2
 10
-12.434099
 20
102.969138
 40
3.000000
 50
272.981461
 51
353.407404
  0
ARC
  8
2
 10
3.506389
 20
110.313693
 40
2.000000
 50
273.000000
 51
360.000000
  0
LINE
  8
2
 10
-38.046525
 20
-22.792120
 11
-11.602151
 21
-29.877869
  0
LINE
  8
2
 10
3.611061
 20
-31.501197
 11
-3.807627
 21
-31.112400
  0
ARC
  8
2
 10
-36.493611
 20
-16.996565
 40
6.000000
 50
180.000000
 51
255.000000
  0
ARC
  8
2
 10
-3.493611
 20
-25.120623
 40
6.000000
 50
180.000000
 51
267.000000
  0
ARC
  8
2
 10
3.506389
 20
-33.498456
 40
2.000000
 50
0.000000
 51
87.000000
  0
ARC
  8
2
 10
-1.831998
 20
6.584838
 40
37.748972
 50
255.000000
 51
267.000000
  0
LINE
  8
2
 10
-11.387139
 20
-23.244533
 11
-36.810274
 21
-21.900897
  0
ARC
  8
2
 10
-36.493611
 20
-15.909259
 40
6.000000
 50
180.000000
 51
266.974679
  0
LINE
  8
2
 10
-9.493611
 20
85.899473
 11
5.506389
 21
85.899473
  0
LINE
  8
2
 10
-9.493611
 20
-11.100527
 11
5.506389
 21
-11.100527
  0
LINE
  8
2
 10
-5.521815
 20
-30.767427
 11
5.506389
 21
-30.767427
  0
ARC
  8
2
 10
-11.492694
 20
-25.241746
 40
2.000000
 50
0.867510
 51
86.974679
  0
LINE
  8
2
 10
-8.145050
 20
105.725861
 11
5.506389
 21
105.725861
  0
LINE
  8
2
 10
-89.493611
 20
21.297402
 11
-89.493611
 21
55.501544
  0
LINE
  8
2
 10
-76.493611
 20
15.916772
 11
-76.493611
 21
60.882174
  0
LINE
  8
2
 10
-74.014555
 20
63.836597
 11
-50.757129
 21
67.937509
  0
LINE
  8
2
 10
-74.014555
 20
12.962348
 11
-50.757129
 21
8.861437
  0
LINE
  8
2
 10
-87.598283
 20
57.498803
 11
-78.388939
 21
57.981444
  0
LINE
  8
2
 10
-87.598283
 20
19.300143
 11
-78.388939
 21
18.817501
  0
ARC
  8
2
 10
-73.493611
 20
60.882174
 40
3.000000
 50
100.000000
 51
180.000000
  0
ARC
  8
2
 10
-73.493611
 20
15.916772
 40
3.000000
 50
180.000000
 51
260.000000
  0
ARC
  8
2
 10
-87.493611
 20
55.501544
 40
2.000000
 50
93.000000
 51
180.000000
  0
ARC
  8
2
 10
-87.493611
 20
21.297402
 40
2.000000
 50
180.000000
 51
267.000000
  0
ARC
  8
2
 10
-78.493611
 20
16.820242
 40
2.000000
 50
0.000000
 51
87.000000
  0
ARC
  8
2
 10
-78.493611
 20
59.978703
 40
2.000000
 50
273.000000
 51
360.000000
  0
LINE
  8
2
 10
20.506389
 20
-53.600527
 11
210.506389
 21
-53.600527
  0
LINE
  8
2
 10
17.506389
 20
-37.600527
 11
17.506389
 21
-50.600527
  0
LINE
  8
2
 10
213.506389
 20
-37.600527
 11
213.506389
 21
-50.600527
  0
LINE
  8
2
 10
45.506389
 20
-59.600527
 11
185.506389
 21
-59.600527
  0
LINE
  8
2
 10
45.506389
 20
-56.600527
 11
45.506389
 21
-59.600527
  0
LINE
  8
2
 10
185.506389
 20
-56.600527
 11
185.506389
 21
-59.600527
  0
ARC
  8
2
 10
188.506389
 20
-56.600527
 40
3.000000
 50
90.000000
 51
180.000000
  0
ARC
  8
2
 10
42.506389
 20
-56.600527
 40
3.000000
 50
0.000000
 51
90.000000
  0
ARC
  8
2
 10
210.506389
 20
-50.600527
 40
3.000000
 50
270.000000
 51
360.000000
  0
ARC
  8
2
 10
20.506389
 20
-50.600527
 40
3.000000
 50
180.000000
 51
270.000000
  0
LINE
  8
2
 10
194.506389
 20
-44.600527
 11
213.006389
 21
-44.600527
  0
LINE
  8
2
 10
18.006389
 20
-44.600527
 11
32.506389
 21
-44.600527
  0
LINE
  8
2
 10
108.506389
 20
-44.600527
 11
122.506389
 21
-44.600527
  0
LINE
  8
2
 10
194.006389
 20
-45.100527
 11
194.006389
 21
-52.600527
  0
LINE
  8
2
 10
33.006389
 20
-45.100527
 11
33.006389
 21
-52.600527
  0
LINE
  8
2
 10
108.006389
 20
-45.100527
 11
108.006389
 21
-52.600527
  0
LINE
  8
2
 10
123.006389
 20
-45.100527
 11
123.006389
 21
-52.600527
  0
ARC
  8
2
 10
108.506389
 20
-45.100527
 40
0.500000
 50
90.000000
 51
180.000000
  0
ARC
  8
2
 10
122.506389
 20
-45.100527
 40
0.500000
 50
360.000000
 51
90.000000
  0
ARC
  8
2
 10
194.506389
 20
-45.100527
 40
0.500000
 50
90.000000
 51
180.000000
  0
ARC
  8
2
 10
32.506389
 20
-45.100527
 40
0.500000
 50
0.000000
 51
90.000000
  0
ARC
  8
2
 10
213.006389
 20
-44.100527
 40
0.500000
 50
270.000000
 51
0.000000
  0
ARC
  8
2
 10
18.006389
 20
-44.100527
 40
0.500000
 50
180.000000
 51
270.000000
  0
ARC
  8
2
 10
193.006389
 20
-52.600527
 40
1.000000
 50
270.000000
 51
360.000000
  0
ARC
  8
2
 10
34.006389
 20
-52.600527
 40
1.000000
 50
180.000000
 51
270.000000
  0
ARC
  8
2
 10
107.006389
 20
-52.600527
 40
1.000000
 50
270.000000
 51
360.000000
  0
ARC
  8
2
 10
124.006389
 20
-52.600527
 40
1.000000
 50
180.000000
 51
270.000000
  0
LINE
  8
2
  6
CENTER
 62
2
 10
64.908577
 20
103.399473
 11
167.779314
 21
103.399473
  0
LINE
  8
2
  6
CENTER
 62
2
 10
140.506389
 20
126.535720
 11
140.506389
 21
64.666306
  0
LINE
  8
2
  6
CENTER
 62
2
 10
90.506389
 20
126.535720
 11
90.506389
 21
64.666306
  0
LINE
  8
2
  6
CENTER
 62
2
 10
-138.213088
 20
38.399473
 11
15.506389
 21
38.399473
  0
LINE
  8
2
  6
CENTER
 62
2
 10
-753.353820
 20
146.059294
 11
-753.353820
 21
116.925932
  0
LINE
  8
2
  6
CENTER
 62
2
 10
-628.353820
 20
146.059294
 11
-628.353820
 21
116.925932
  0
LINE
  8
2
  6
CENTER
 62
2
 10
201.506389
 20
79.441237
 11
201.506389
 21
59.087660
  0
LINE
  8
2
  6
CENTER
 62
2
 10
191.012758
 20
18.399473
 11
228.506389
 21
18.399473
  0
LINE
  8
2
  6
CENTER
 62
2
 10
240.149616
 20
18.399473
 11
263.403291
 21
18.399473
  0
LINE
  8
2
  6
CENTER
 62
2
 10
178.506389
 20
148.087660
 11
178.506389
 21
119.341628
  0
LINE
  8
2
  6
CENTER
 62
2
 10
52.506389
 20
148.087660
 11
52.506389
 21
119.341628
  0
LINE
  8
2
  6
CENTER
 62
2
 10
-19.355101
 20
94.399473
 11
21.207689
 21
94.399473
  0
LINE
  8
2
  6
CENTER
 62
2
 10
-19.355101
 20
-19.600527
 11
21.207689
 21
-19.600527
  0
LINE
  8
2
  6
CENTER
 62
2
 10
25.506389
 20
-33.674669
 11
25.506389
 21
-58.577379
  0
LINE
  8
2
  6
CENTER
 62
2
 10
201.506389
 20
-33.674669
 11
201.506389
 21
-58.577379
  0
LINE
  8
2
 10
-634.103820
 20
129.899473
 11
-634.103820
 21
128.399473
  0
LINE
  8
2
 10
-628.814897
 20
129.899473
 11
-634.103820
 21
129.899473
  0
LINE
  8
2
 10
-633.603820
 20
131.426489
 11
-633.603820
 21
129.899473
  0
ARC
  8
2
 10
-628.353820
 20
119.799473
 40
14.000000
 50
78.556101
 51
106.072859
  0
ARC
  8
2
 10
-631.703820
 20
131.426489
 40
1.900000
 50
106.072859
 51
180.000000
  0
LINE
  8
2
 10
-759.103820
 20
129.899473
 11
-759.103820
 21
128.399473
  0
LINE
  8
2
 10
-747.603820
 20
129.899473
 11
-747.603820
 21
128.399473
  0
LINE
  8
2
 10
-747.603820
 20
129.899473
 11
-759.103820
 21
129.899473
  0
LINE
  8
2
 10
-758.603820
 20
131.426489
 11
-758.603820
 21
129.899473
  0
LINE
  8
2
 10
-748.103820
 20
131.426489
 11
-748.103820
 21
129.899473
  0
ARC
  8
2
 10
-753.353820
 20
119.799473
 40
14.000000
 50
73.927141
 51
106.072859
  0
ARC
  8
2
 10
-750.003820
 20
131.426489
 40
1.900000
 50
0.000000
 51
73.927141
  0
ARC
  8
2
 10
-756.703820
 20
131.426489
 40
1.900000
 50
106.072859
 51
180.000000
  0
LINE
  8
2
 10
196.506389
 20
66.399473
 11
196.506389
 21
71.999473
  0
LINE
  8
2
 10
196.506389
 20
71.999473
 11
197.199209
 21
72.399473
  0
LINE
  8
2
 10
197.199209
 20
72.399473
 11
205.813569
 21
72.399473
  0
LINE
  8
2
 10
206.506389
 20
71.999473
 11
196.506389
 21
71.999473
  0
LINE
  8
2
 10
206.506389
 20
66.399473
 11
206.506389
 21
71.999473
  0
LINE
  8
2
 10
206.506389
 20
71.999473
 11
205.813569
 21
72.399473
  0
LINE
  8
2
 10
110.506389
 20
66.399473
 11
110.506389
 21
71.999473
  0
LINE
  8
2
 10
110.506389
 20
71.999473
 11
111.199209
 21
72.399473
  0
LINE
  8
2
 10
111.199209
 20
72.399473
 11
119.813569
 21
72.399473
  0
LINE
  8
2
 10
120.506389
 20
71.999473
 11
110.506389
 21
71.999473
  0
LINE
  8
2
 10
120.506389
 20
66.399473
 11
120.506389
 21
71.999473
  0
LINE
  8
2
 10
120.506389
 20
71.999473
 11
119.813569
 21
72.399473
  0
LINE
  8
2
 10
46.756389
 20
129.899473
 11
46.756389
 21
128.399473
  0
LINE
  8
2
 10
58.256389
 20
129.899473
 11
58.256389
 21
128.399473
  0
LINE
  8
2
 10
58.256389
 20
129.899473
 11
46.756389
 21
129.899473
  0
LINE
  8
2
 10
47.256389
 20
131.426489
 11
47.256389
 21
129.899473
  0
LINE
  8
2
 10
57.756389
 20
131.426489
 11
57.756389
 21
129.899473
  0
ARC
  8
2
 10
52.506389
 20
119.799473
 40
14.000000
 50
73.927141
 51
106.072859
  0
ARC
  8
2
 10
55.856389
 20
131.426489
 40
1.900000
 50
0.000000
 51
73.927141
  0
ARC
  8
2
 10
49.156389
 20
131.426489
 40
1.900000
 50
106.072859
 51
180.000000
  0
LINE
  8
2
 10
184.256389
 20
129.899473
 11
184.256389
 21
128.399473
  0
LINE
  8
2
 10
172.756389
 20
129.899473
 11
172.756389
 21
128.399473
  0
LINE
  8
2
 10
172.756389
 20
129.899473
 11
184.256389
 21
129.899473
  0
LINE
  8
2
 10
183.756389
 20
131.426489
 11
183.756389
 21
129.899473
  0
LINE
  8
2
 10
173.256389
 20
131.426489
 11
173.256389
 21
129.899473
  0
ARC
  8
2
 10
178.506389
 20
119.799473
 40
14.000000
 50
73.927141
 51
106.072859
  0
ARC
  8
2
 10
175.156389
 20
131.426489
 40
1.900000
 50
106.072859
 51
180.000000
  0
ARC
  8
2
 10
181.856389
 20
131.426489
 40
1.900000
 50
0.000000
 51
73.927141
  0
LINE
  8
2
 10
3.506389
 20
87.149473
 11
3.506389
 21
101.649473
  0
LINE
  8
2
 10
3.506389
 20
101.649473
 11
5.506389
 21
101.649473
  0
LINE
  8
2
 10
3.506389
 20
87.149473
 11
5.506389
 21
87.149473
  0
LINE
  8
2
 10
1.548340
 20
101.399473
 11
3.506389
 21
101.399473
  0
LINE
  8
2
 10
1.548340
 20
87.399473
 11
3.506389
 21
87.399473
  0
ARC
  8
2
 10
16.306389
 20
94.399473
 40
18.000000
 50
163.398450
 51
196.601550
  0
ARC
  8
2
 10
1.548340
 20
98.799473
 40
2.600000
 50
90.000000
 51
163.398450
  0
ARC
  8
2
 10
1.548340
 20
89.999473
 40
2.600000
 50
196.601550
 51
270.000000
  0
LINE
  8
2
 10
3.506389
 20
-26.850527
 11
3.506389
 21
-12.350527
  0
LINE
  8
2
 10
3.506389
 20
-12.350527
 11
5.506389
 21
-12.350527
  0
LINE
  8
2
 10
3.506389
 20
-26.850527
 11
5.506389
 21
-26.850527
  0
LINE
  8
2
 10
1.548340
 20
-12.600527
 11
3.506389
 21
-12.600527
  0
LINE
  8
2
 10
1.548340
 20
-26.600527
 11
3.506389
 21
-26.600527
  0
ARC
  8
2
 10
16.306389
 20
-19.600527
 40
18.000000
 50
163.398450
 51
196.601550
  0
ARC
  8
2
 10
1.548340
 20
-15.200527
 40
2.600000
 50
90.000000
 51
163.398450
  0
ARC
  8
2
 10
1.548340
 20
-24.000527
 40
2.600000
 50
196.601550
 51
270.000000
  0
LINE
  8
2
 10
32.006389
 20
-44.600527
 11
32.006389
 21
-52.100527
  0
LINE
  8
2
 10
32.006389
 20
-52.100527
 11
31.140364
 21
-52.600527
  0
LINE
  8
2
 10
19.006389
 20
-44.600527
 11
19.006389
 21
-52.100527
  0
LINE
  8
2
 10
19.006389
 20
-52.100527
 11
19.872415
 21
-52.600527
  0
LINE
  8
2
 10
19.872415
 20
-52.600527
 11
31.140364
 21
-52.600527
  0
LINE
  8
2
 10
32.006389
 20
-52.100527
 11
19.006389
 21
-52.100527
  0
LINE
  8
2
 10
122.006389
 20
-44.600527
 11
122.006389
 21
-52.100527
  0
LINE
  8
2
 10
122.006389
 20
-52.100527
 11
121.140364
 21
-52.600527
  0
LINE
  8
2
 10
109.006389
 20
-44.600527
 11
109.006389
 21
-52.100527
  0
LINE
  8
2
 10
109.006389
 20
-52.100527
 11
109.872415
 21
-52.600527
  0
LINE
  8
2
 10
109.872415
 20
-52.600527
 11
121.140364
 21
-52.600527
  0
LINE
  8
2
 10
122.006389
 20
-52.100527
 11
109.006389
 21
-52.100527
  0
LINE
  8
2
 10
208.006389
 20
-44.600527
 11
208.006389
 21
-52.100527
  0
LINE
  8
2
 10
208.006389
 20
-52.100527
 11
207.140364
 21
-52.600527
  0
LINE
  8
2
 10
195.006389
 20
-44.600527
 11
195.006389
 21
-52.100527
  0
LINE
  8
2
 10
195.006389
 20
-52.100527
 11
195.872415
 21
-52.600527
  0
LINE
  8
2
 10
195.872415
 20
-52.600527
 11
207.140364
 21
-52.600527
  0
LINE
  8
2
 10
208.006389
 20
-52.100527
 11
195.006389
 21
-52.100527
  0
ARC
  8
2
 10
-729.971008
 20
148.399473
 40
20.000000
 50
90.000000
 51
160.000000
  0
LINE
  8
2
 10
-746.353820
 20
158.168383
 11
-746.353820
 21
129.399473
  0
ARC
  8
2
 10
-757.833761
 20
127.399473
 40
1.000000
 50
90.000000
 51
160.000000
  0
LINE
  8
2
 10
-756.717818
 20
133.389304
 11
-748.764861
 21
155.239876
  0
LINE
  8
2
 10
-759.103820
 20
128.399473
 11
-747.353820
 21
128.399473
  0
LINE
  8
2
 10
-634.353820
 20
128.399473
 11
-630.091873
 21
128.399473
  0
ARC
  8
2
 10
-747.353820
 20
129.399473
 40
1.000000
 50
270.000000
 51
360.000000
  0
ARC
  8
2
 10
-741.353820
 20
158.168383
 40
5.000000
 50
139.363281
 51
180.000000
  0
ARC
  8
2
 10
-634.353820
 20
129.399473
 40
1.000000
 50
180.000000
 51
270.000000
  0
ARC
  8
2
 10
-640.353820
 20
163.399473
 40
5.000000
 50
0.000000
 51
90.000000
  0
ARC
  8
2
 10
-616.353820
 20
163.399473
 40
5.000000
 50
90.000000
 51
180.000000
  0
LINE
  8
2
 10
-496.353820
 20
123.399473
 11
-498.663868
 21
149.803450
  0
LINE
  8
2
 10
-510.353820
 20
146.868755
 11
-510.353820
 21
137.615147
  0
ARC
  8
2
 10
172.506389
 20
129.399473
 40
1.000000
 50
180.000000
 51
270.000000
  0
ARC
  8
2
 10
58.506389
 20
129.399473
 40
1.000000
 50
270.000000
 51
360.000000
  0
ARC
  8
2
 10
168.506389
 20
165.399473
 40
3.000000
 50
360.000000
 51
90.000000
  0
ARC
  8
2
 10
62.506389
 20
165.399473
 40
3.000000
 50
90.000000
 51
180.000000
  0
LINE
  8
2
 10
185.506389
 20
123.399473
 11
181.968717
 21
163.835251
  0
LINE
  8
2
 10
45.506389
 20
123.399473
 11
49.044061
 21
163.835251
  0
ARC
  8
2
 10
54.025035
 20
163.399473
 40
5.000000
 50
90.000000
 51
175.000000
  0
ARC
  8
2
 10
176.987743
 20
163.399473
 40
5.000000
 50
5.000000
 51
90.000000
  0
ARC
  8
2
 10
184.152615
 20
127.399473
 40
1.000000
 50
5.000000
 51
90.000000
  0
ARC
  8
2
 10
46.860164
 20
127.399473
 40
1.000000
 50
90.000000
 51
175.000000
  0
ARC
  8
2
 10
-52.493611
 20
77.785586
 40
10.000000
 50
280.000000
 51
360.000000
  0
ARC
  8
2
 10
-52.493611
 20
-0.986641
 40
10.000000
 50
0.000000
 51
80.000000
  0
LINE
  8
2
 10
-713.353820
 20
615.383078
 11
-713.353820
 21
630.383078
  0
LINE
  8
2
 10
-494.353820
 20
587.883078
 11
-494.353820
 21
552.883078
  0
LINE
  8
2
 10
-494.853820
 20
552.383078
 11
-495.853820
 21
552.383078
  0
LINE
  8
2
 10
-495.853820
 20
588.383078
 11
-494.853820
 21
588.383078
  0
LINE
  8
2
 10
-494.353820
 20
502.883078
 11
-494.353820
 21
537.883078
  0
LINE
  8
2
 10
-494.853820
 20
538.383078
 11
-495.853820
 21
538.383078
  0
LINE
  8
2
 10
-495.853820
 20
502.383078
 11
-494.853820
 21
502.383078
  0
LINE
  8
2
 10
-530.853820
 20
340.383078
 11
-530.853820
 21
335.883078
  0
LINE
  8
2
 10
-514.853820
 20
335.883078
 11
-514.853820
 21
340.383078
  0
LINE
  8
2
 10
-486.353820
 20
583.383078
 11
-486.353820
 21
557.383078
  0
LINE
  8
2
 10
-491.353820
 20
585.394185
 11
-491.353820
 21
555.371971
  0
LINE
  8
2
 10
-487.514933
 20
555.371971
 11
-491.353820
 21
555.371971
  0
LINE
  8
2
 10
-487.514933
 20
562.877525
 11
-491.353820
 21
562.877525
  0
LINE
  8
2
 10
-487.514933
 20
577.888632
 11
-491.353820
 21
577.888632
  0
LINE
  8
2
 10
-487.514933
 20
585.394185
 11
-491.353820
 21
585.394185
  0
LINE
  8
2
 10
-486.353820
 20
557.383078
 11
-487.514933
 21
555.371971
  0
LINE
  8
2
 10
-486.353820
 20
583.383078
 11
-487.514933
 21
585.394185
  0
ARC
  8
2
 10
-511.192706
 20
570.383078
 40
24.838887
 50
342.412046
 51
17.587954
  0
ARC
  8
2
 10
-492.998955
 20
559.124748
 40
6.645136
 50
325.615736
 51
34.384264
  0
ARC
  8
2
 10
-492.998955
 20
581.641408
 40
6.645136
 50
325.615736
 51
34.384264
  0
LINE
  8
2
 10
-491.353820
 20
579.383078
 11
-494.353820
 21
579.383078
  0
LINE
  8
2
 10
-494.353820
 20
561.383078
 11
-491.353820
 21
561.383078
  0
LINE
  8
2
 10
-486.353820
 20
533.383078
 11
-486.353820
 21
507.383078
  0
LINE
  8
2
 10
-491.353820
 20
535.394185
 11
-491.353820
 21
505.371971
  0
LINE
  8
2
 10
-487.514933
 20
505.371971
 11
-491.353820
 21
505.371971
  0
LINE
  8
2
 10
-487.514933
 20
512.877525
 11
-491.353820
 21
512.877525
  0
LINE
  8
2
 10
-487.514933
 20
527.888632
 11
-491.353820
 21
527.888632
  0
LINE
  8
2
 10
-487.514933
 20
535.394185
 11
-491.353820
 21
535.394185
  0
LINE
  8
2
 10
-486.353820
 20
507.383078
 11
-487.514933
 21
505.371971
  0
LINE
  8
2
 10
-486.353820
 20
533.383078
 11
-487.514933
 21
535.394185
  0
ARC
  8
2
 10
-511.192706
 20
520.383078
 40
24.838887
 50
342.412046
 51
17.587954
  0
ARC
  8
2
 10
-492.998955
 20
509.124748
 40
6.645136
 50
325.615736
 51
34.384264
  0
ARC
  8
2
 10
-492.998955
 20
531.641408
 40
6.645136
 50
325.615736
 51
34.384264
  0
LINE
  8
2
 10
-491.353820
 20
529.383078
 11
-494.353820
 21
529.383078
  0
LINE
  8
2
 10
-494.353820
 20
511.383078
 11
-491.353820
 21
511.383078
  0
CIRCLE
  8
2
 10
-621.353820
 20
545.383078
 40
42.500000
  0
LINE
  8
2
 10
-651.776015
 20
552.883078
 11
-630.838772
 21
552.883078
  0
LINE
  8
2
 10
-651.776015
 20
537.883078
 11
-630.838772
 21
537.883078
  0
LINE
  8
2
 10
-611.868867
 20
537.883078
 11
-590.931624
 21
537.883078
  0
LINE
  8
2
 10
-619.353820
 20
523.360603
 11
-619.353820
 21
521.216986
  0
LINE
  8
2
 10
-623.353820
 20
523.360603
 11
-623.353820
 21
521.216986
  0
LINE
  8
2
 10
-619.353820
 20
567.405553
 11
-619.353820
 21
569.549170
  0
LINE
  8
2
 10
-623.353820
 20
567.405553
 11
-623.353820
 21
569.549170
  0
LINE
  8
2
 10
-611.868867
 20
552.883078
 11
-590.931624
 21
552.883078
  0
CIRCLE
  8
2
 10
-621.353820
 20
545.383078
 40
31.333050
  0
ARC
  8
2
 10
-658.778429
 20
545.709927
 40
45.000000
 50
12.236103
 51
30.645688
  0
ARC
  8
2
 10
-583.929210
 20
545.709927
 40
45.000000
 50
149.354312
 51
167.763897
  0
ARC
  8
2
 10
-621.353820
 20
567.883078
 40
1.500000
 50
30.645688
 51
149.354312
  0
ARC
  8
2
 10
-611.868867
 20
555.883078
 40
3.000000
 50
192.236103
 51
270.000000
  0
ARC
  8
2
 10
-630.838772
 20
555.883078
 40
3.000000
 50
270.000000
 51
347.763897
  0
ARC
  8
2
 10
-658.778429
 20
545.056229
 40
45.000000
 50
329.354312
 51
347.763897
  0
ARC
  8
2
 10
-583.929210
 20
545.056229
 40
45.000000
 50
192.236103
 51
210.645688
  0
ARC
  8
2
 10
-621.353820
 20
522.883078
 40
1.500000
 50
210.645688
 51
329.354312
  0
ARC
  8
2
 10
-611.868867
 20
534.883078
 40
3.000000
 50
90.000000
 51
167.763897
  0
ARC
  8
2
 10
-630.838772
 20
534.883078
 40
3.000000
 50
12.236103
 51
90.000000
  0
ARC
  8
2
 10
-621.353820
 20
545.383078
 40
24.248711
 50
18.016736
 51
161.983264
  0
ARC
  8
2
 10
-621.353820
 20
545.383078
 40
24.248711
 50
198.016736
 51
341.983264
  0
LINE
  8
2
 10
-630.169487
 20
522.793611
 11
-628.170618
 21
527.619308
  0
LINE
  8
2
 10
-613.613142
 20
562.764164
 11
-611.614273
 21
567.589861
  0
LINE
  8
2
 10
-631.093366
 20
523.176295
 11
-629.094497
 21
528.001992
  0
LINE
  8
2
 10
-614.537021
 20
563.146848
 11
-612.538152
 21
567.972545
  0
LINE
  8
2
 10
-638.143049
 20
527.886742
 11
-634.449620
 21
531.580170
  0
LINE
  8
2
 10
-607.550912
 20
558.478879
 11
-603.857483
 21
562.172307
  0
LINE
  8
2
 10
-638.850156
 20
528.593849
 11
-635.156727
 21
532.287277
  0
LINE
  8
2
 10
-608.258019
 20
559.185986
 11
-604.564590
 21
562.879414
  0
LINE
  8
2
 10
-643.560603
 20
535.643531
 11
-638.734906
 21
537.642400
  0
LINE
  8
2
 10
-601.940655
 20
552.883078
 11
-598.764353
 21
554.198745
  0
LINE
  8
2
 10
-643.943286
 20
536.567411
 11
-640.766984
 21
537.883078
  0
LINE
  8
2
 10
-603.972733
 20
553.123756
 11
-599.147036
 21
555.122625
  0
ARC
  8
2
 10
-628.632558
 20
527.810650
 40
0.500000
 50
337.500000
 51
157.500000
  0
ARC
  8
2
 10
-634.803174
 20
531.933724
 40
0.500000
 50
315.000000
 51
135.000000
  0
ARC
  8
2
 10
-638.926248
 20
538.104340
 40
0.500000
 50
292.500000
 51
333.734975
  0
ARC
  8
2
 10
-614.075081
 20
562.955506
 40
0.500000
 50
157.500000
 51
337.500000
  0
ARC
  8
2
 10
-607.904465
 20
558.832432
 40
0.500000
 50
135.000000
 51
315.000000
  0
ARC
  8
2
 10
-603.781391
 20
552.661816
 40
0.500000
 50
112.500000
 51
153.734975
  0
LINE
  8
2
 10
-604.552455
 20
536.529384
 11
-602.530410
 21
535.691825
  0
ARC
  8
2
 10
-603.882704
 20
538.146305
 40
1.750143
 50
188.650293
 51
247.500000
  0
ARC
  8
2
 10
-601.860659
 20
537.308746
 40
1.750143
 50
247.500000
 51
19.157293
  0
LINE
  8
2
 10
-638.155184
 20
554.236772
 11
-640.177230
 21
555.074331
  0
ARC
  8
2
 10
-638.824935
 20
552.619851
 40
1.750143
 50
8.650293
 51
67.500000
  0
ARC
  8
2
 10
-640.846980
 20
553.457410
 40
1.750143
 50
67.500000
 51
199.157293
  0
ARC
  8
2
  6
CENTER
 62
2
 10
-621.353820
 20
545.383078
 40
37.500000
 50
126.361503
 51
143.885033
  0
ARC
  8
2
  6
CENTER
 62
2
 10
-621.353820
 20
545.383078
 40
37.500000
 50
216.933310
 51
233.416879
  0
ARC
  8
2
  6
CENTER
 62
2
 10
-621.353820
 20
545.383078
 40
37.500000
 50
306.278748
 51
323.822644
  0
ARC
  8
2
  6
CENTER
 62
2
 10
-621.353820
 20
545.383078
 40
37.500000
 50
36.280641
 51
53.737219
  0
LINE
  8
2
  6
CENTER
 62
2
 10
-652.193106
 20
514.543792
 11
-644.142506
 21
522.594392
  0
LINE
  8
2
  6
CENTER
 62
2
 10
-598.962966
 20
567.773931
 11
-590.416593
 21
576.320305
  0
LINE
  8
2
  6
CENTER
 62
2
 10
-652.247439
 20
576.276697
 11
-643.896447
 21
567.925705
  0
LINE
  8
2
  6
CENTER
 62
2
 10
-598.781736
 20
522.810994
 11
-590.650672
 21
514.679931
  0
CIRCLE
  8
2
 10
-594.837315
 20
518.866574
 40
3.500000
  0
LINE
  8
2
 10
-593.705944
 20
520.705051
 11
-592.998838
 21
519.997945
  0
LINE
  8
2
 10
-596.675793
 20
517.735203
 11
-595.968686
 21
517.028096
  0
LINE
  8
2
 10
-595.968686
 20
520.705051
 11
-596.675793
 21
519.997945
  0
LINE
  8
2
 10
-592.998838
 20
517.735203
 11
-593.705944
 21
517.028096
  0
LINE
  8
2
 10
-595.968686
 20
517.028096
 11
-595.403001
 21
517.593782
  0
LINE
  8
2
 10
-593.564523
 20
519.432259
 11
-592.998838
 21
519.997945
  0
LINE
  8
2
 10
-596.675793
 20
517.735203
 11
-596.110107
 21
518.300888
  0
LINE
  8
2
 10
-594.271630
 20
520.139366
 11
-593.705944
 21
520.705051
  0
LINE
  8
2
 10
-596.675793
 20
519.997945
 11
-596.110107
 21
519.432259
  0
LINE
  8
2
 10
-594.271630
 20
517.593782
 11
-593.705944
 21
517.028096
  0
LINE
  8
2
 10
-595.968686
 20
520.705051
 11
-595.403001
 21
520.139366
  0
LINE
  8
2
 10
-593.564523
 20
518.300888
 11
-592.998838
 21
517.735203
  0
ARC
  8
2
 10
-594.837315
 20
520.705051
 40
0.800000
 50
225.000000
 51
315.000000
  0
ARC
  8
2
 10
-596.675793
 20
518.866574
 40
0.800000
 50
315.000000
 51
45.000000
  0
ARC
  8
2
 10
-594.837315
 20
517.028096
 40
0.800000
 50
45.000000
 51
135.000000
  0
ARC
  8
2
 10
-592.998838
 20
518.866574
 40
0.800000
 50
135.000000
 51
225.000000
  0
CIRCLE
  8
2
 10
-594.837315
 20
571.899582
 40
3.500000
  0
LINE
  8
2
 10
-593.705944
 20
573.738060
 11
-592.998838
 21
573.030953
  0
LINE
  8
2
 10
-596.675793
 20
570.768211
 11
-595.968686
 21
570.061105
  0
LINE
  8
2
 10
-595.968686
 20
573.738060
 11
-596.675793
 21
573.030953
  0
LINE
  8
2
 10
-592.998838
 20
570.768211
 11
-593.705944
 21
570.061105
  0
LINE
  8
2
 10
-595.968686
 20
570.061105
 11
-595.403001
 21
570.626790
  0
LINE
  8
2
 10
-593.564523
 20
572.465268
 11
-592.998838
 21
573.030953
  0
LINE
  8
2
 10
-596.675793
 20
570.768211
 11
-596.110107
 21
571.333897
  0
LINE
  8
2
 10
-594.271630
 20
573.172375
 11
-593.705944
 21
573.738060
  0
LINE
  8
2
 10
-596.675793
 20
573.030953
 11
-596.110107
 21
572.465268
  0
LINE
  8
2
 10
-594.271630
 20
570.626790
 11
-593.705944
 21
570.061105
  0
LINE
  8
2
 10
-595.968686
 20
573.738060
 11
-595.403001
 21
573.172375
  0
LINE
  8
2
 10
-593.564523
 20
571.333897
 11
-592.998838
 21
570.768211
  0
ARC
  8
2
 10
-594.837315
 20
573.738060
 40
0.800000
 50
225.000000
 51
315.000000
  0
ARC
  8
2
 10
-596.675793
 20
571.899582
 40
0.800000
 50
315.000000
 51
45.000000
  0
ARC
  8
2
 10
-594.837315
 20
570.061105
 40
0.800000
 50
45.000000
 51
135.000000
  0
ARC
  8
2
 10
-592.998838
 20
571.899582
 40
0.800000
 50
135.000000
 51
225.000000
  0
CIRCLE
  8
2
 10
-647.870324
 20
518.866574
 40
3.500000
  0
LINE
  8
2
 10
-646.738953
 20
520.705051
 11
-646.031846
 21
519.997945
  0
LINE
  8
2
 10
-649.708801
 20
517.735203
 11
-649.001695
 21
517.028096
  0
LINE
  8
2
 10
-649.001695
 20
520.705051
 11
-649.708801
 21
519.997945
  0
LINE
  8
2
 10
-646.031846
 20
517.735203
 11
-646.738953
 21
517.028096
  0
LINE
  8
2
 10
-649.001695
 20
517.028096
 11
-648.436009
 21
517.593782
  0
LINE
  8
2
 10
-646.597532
 20
519.432259
 11
-646.031846
 21
519.997945
  0
LINE
  8
2
 10
-649.708801
 20
517.735203
 11
-649.143116
 21
518.300888
  0
LINE
  8
2
 10
-647.304638
 20
520.139366
 11
-646.738953
 21
520.705051
  0
LINE
  8
2
 10
-649.708801
 20
519.997945
 11
-649.143116
 21
519.432259
  0
LINE
  8
2
 10
-647.304638
 20
517.593782
 11
-646.738953
 21
517.028096
  0
LINE
  8
2
 10
-649.001695
 20
520.705051
 11
-648.436009
 21
520.139366
  0
LINE
  8
2
 10
-646.597532
 20
518.300888
 11
-646.031846
 21
517.735203
  0
ARC
  8
2
 10
-647.870324
 20
520.705051
 40
0.800000
 50
225.000000
 51
315.000000
  0
ARC
  8
2
 10
-649.708801
 20
518.866574
 40
0.800000
 50
315.000000
 51
45.000000
  0
ARC
  8
2
 10
-647.870324
 20
517.028096
 40
0.800000
 50
45.000000
 51
135.000000
  0
ARC
  8
2
 10
-646.031846
 20
518.866574
 40
0.800000
 50
135.000000
 51
225.000000
  0
CIRCLE
  8
2
 10
-647.870324
 20
571.899582
 40
3.500000
  0
LINE
  8
2
 10
-646.738953
 20
573.738060
 11
-646.031846
 21
573.030953
  0
LINE
  8
2
 10
-649.708801
 20
570.768211
 11
-649.001695
 21
570.061105
  0
LINE
  8
2
 10
-649.001695
 20
573.738060
 11
-649.708801
 21
573.030953
  0
LINE
  8
2
 10
-646.031846
 20
570.768211
 11
-646.738953
 21
570.061105
  0
LINE
  8
2
 10
-649.001695
 20
570.061105
 11
-648.436009
 21
570.626790
  0
LINE
  8
2
 10
-646.597532
 20
572.465268
 11
-646.031846
 21
573.030953
  0
LINE
  8
2
 10
-649.708801
 20
570.768211
 11
-649.143116
 21
571.333897
  0
LINE
  8
2
 10
-647.304638
 20
573.172375
 11
-646.738953
 21
573.738060
  0
LINE
  8
2
 10
-649.708801
 20
573.030953
 11
-649.143116
 21
572.465268
  0
LINE
  8
2
 10
-647.304638
 20
570.626790
 11
-646.738953
 21
570.061105
  0
LINE
  8
2
 10
-649.001695
 20
573.738060
 11
-648.436009
 21
573.172375
  0
LINE
  8
2
 10
-646.597532
 20
571.333897
 11
-646.031846
 21
570.768211
  0
ARC
  8
2
 10
-647.870324
 20
573.738060
 40
0.800000
 50
225.000000
 51
315.000000
  0
ARC
  8
2
 10
-649.708801
 20
571.899582
 40
0.800000
 50
315.000000
 51
45.000000
  0
ARC
  8
2
 10
-647.870324
 20
570.061105
 40
0.800000
 50
45.000000
 51
135.000000
  0
ARC
  8
2
 10
-646.031846
 20
571.899582
 40
0.800000
 50
135.000000
 51
225.000000
  0
ARC
  8
2
 10
-459.353820
 20
454.383078
 40
3.000000
 50
360.000000
 51
90.000000
  0
LINE
  8
2
 10
-477.353820
 20
630.383078
 11
-477.353820
 21
462.383078
  0
LINE
  8
2
 10
-493.537150
 20
457.383078
 11
-550.750789
 21
457.383078
  0
LINE
  8
2
 10
-459.353820
 20
457.383078
 11
-480.875670
 21
457.383078
  0
LINE
  8
2
 10
-456.353820
 20
437.383078
 11
-456.353820
 21
454.383078
  0
LINE
  8
2
 10
-456.353820
 20
445.383078
 11
-844.353820
 21
445.383078
  0
LINE
  8
2
 10
-565.956850
 20
457.383078
 11
-698.075102
 21
457.383078
  0
LINE
  8
2
 10
-844.353820
 20
437.383078
 11
-844.353820
 21
630.383078
  0
LINE
  8
2
 10
-760.353820
 20
482.383078
 11
-760.353820
 21
608.383078
  0
LINE
  8
2
 10
-766.092778
 20
615.383078
 11
-503.353820
 21
615.383078
  0
LINE
  8
2
 10
-496.353820
 20
608.383078
 11
-496.353820
 21
460.383078
  0
ARC
  8
2
 10
-753.353820
 20
608.383078
 40
7.000000
 50
90.000000
 51
180.000000
  0
ARC
  8
2
 10
-753.353820
 20
482.383078
 40
7.000000
 50
180.000000
 51
270.000000
  0
ARC
  8
2
 10
-503.353820
 20
608.383078
 40
7.000000
 50
0.000000
 51
90.000000
  0
ARC
  8
2
 10
-503.353820
 20
482.383078
 40
7.000000
 50
270.000000
 51
360.000000
  0
LINE
  8
2
 10
-829.353820
 20
645.383078
 11
-492.353820
 21
645.383078
  0
CIRCLE
  8
2
 10
-558.353820
 20
460.383078
 40
7.099784
  0
ARC
  8
2
 10
-550.750789
 20
455.383078
 40
2.000000
 50
90.000000
 51
146.669780
  0
ARC
  8
2
 10
-565.956850
 20
455.383078
 40
2.000000
 50
33.330220
 51
90.000000
  0
CIRCLE
  8
2
 10
-558.353820
 20
460.383078
 40
6.000000
  0
CIRCLE
  8
2
 10
-705.353820
 20
460.383078
 40
6.000000
  0
LINE
  8
2
 10
-713.353820
 20
472.383078
 11
-713.353820
 21
460.383078
  0
ARC
  8
2
 10
-710.353820
 20
472.383078
 40
3.000000
 50
90.000000
 51
180.000000
  0
ARC
  8
2
 10
-710.353820
 20
460.383078
 40
3.000000
 50
180.000000
 51
235.972242
  0
CIRCLE
  8
2
 10
-705.353820
 20
460.383078
 40
6.830613
  0
ARC
  8
2
 10
-698.075102
 20
455.383078
 40
2.000000
 50
90.000000
 51
145.513495
  0
ARC
  8
2
 10
-713.151792
 20
456.239245
 40
2.000000
 50
27.986121
 51
55.972242
  0
CIRCLE
  8
2
 10
-487.353820
 20
460.383078
 40
6.000000
  0
CIRCLE
  8
2
 10
-487.353820
 20
460.383078
 40
6.183301
  0
ARC
  8
2
 10
-480.875670
 20
455.383078
 40
2.000000
 50
90.000000
 51
142.338130
  0
ARC
  8
2
 10
-493.353820
 20
460.383078
 40
3.000000
 50
180.000000
 51
264.293054
  0
ARC
  8
2
 10
-493.851021
 20
455.407860
 40
2.000000
 50
37.443005
 51
84.293054
  0
ARC
  8
2
 10
-472.353820
 20
462.383078
 40
5.000000
 50
180.000000
 51
270.000000
  0
ARC
  8
2
 10
-492.353820
 20
630.383078
 40
15.000000
 50
0.000000
 51
90.000000
  0
ARC
  8
2
 10
-728.353820
 20
630.383078
 40
15.000000
 50
360.000000
 51
90.000000
  0
ARC
  8
2
 10
-829.353820
 20
630.383078
 40
15.000000
 50
90.000000
 51
180.000000
  0
LINE
  8
2
 10
-773.092778
 20
482.383078
 11
-773.092778
 21
608.383078
  0
ARC
  8
2
 10
-766.092778
 20
608.383078
 40
7.000000
 50
90.000000
 51
180.000000
  0
LINE
  8
2
 10
-840.353820
 20
475.383078
 11
-503.353820
 21
475.383078
  0
ARC
  8
2
 10
-766.092778
 20
482.383078
 40
7.000000
 50
180.000000
 51
270.000000
  0
ARC
  8
2
 10
-494.853820
 20
552.883078
 40
0.500000
 50
270.000000
 51
360.000000
  0
ARC
  8
2
 10
-495.853820
 20
551.883078
 40
0.500000
 50
90.000000
 51
180.000000
  0
ARC
  8
2
 10
-494.853820
 20
587.883078
 40
0.500000
 50
0.000000
 51
90.000000
  0
ARC
  8
2
 10
-495.853820
 20
588.883078
 40
0.500000
 50
180.000000
 51
270.000000
  0
ARC
  8
2
 10
-494.853820
 20
537.883078
 40
0.500000
 50
360.000000
 51
90.000000
  0
ARC
  8
2
 10
-495.853820
 20
538.883078
 40
0.500000
 50
180.000000
 51
270.000000
  0
ARC
  8
2
 10
-494.853820
 20
502.883078
 40
0.500000
 50
270.000000
 51
360.000000
  0
ARC
  8
2
 10
-495.853820
 20
501.883078
 40
0.500000
 50
90.000000
 51
180.000000
  0
LINE
  8
2
 10
-685.353820
 20
658.383078
 11
-657.353820
 21
658.383078
  0
LINE
  8
2
 10
-585.353820
 20
658.383078
 11
-557.353820
 21
658.383078
  0
ARC
  8
2
 10
-557.353820
 20
657.383078
 40
1.000000
 50
0.000000
 51
90.000000
  0
ARC
  8
2
 10
-585.353820
 20
657.383078
 40
1.000000
 50
90.000000
 51
180.000000
  0
ARC
  8
2
 10
-657.353820
 20
657.383078
 40
1.000000
 50
0.000000
 51
90.000000
  0
ARC
  8
2
 10
-685.353820
 20
657.383078
 40
1.000000
 50
90.000000
 51
180.000000
  0
LINE
  8
2
 10
-553.353820
 20
653.383078
 11
-532.508520
 21
653.383078
  0
LINE
  8
2
 10
-710.199119
 20
653.383078
 11
-689.353820
 21
653.383078
  0
LINE
  8
2
 10
-653.353820
 20
653.383078
 11
-589.353820
 21
653.383078
  0
ARC
  8
2
 10
-553.353820
 20
656.383078
 40
3.000000
 50
180.000000
 51
270.000000
  0
ARC
  8
2
 10
-589.353820
 20
656.383078
 40
3.000000
 50
270.000000
 51
360.000000
  0
ARC
  8
2
 10
-653.353820
 20
656.383078
 40
3.000000
 50
180.000000
 51
270.000000
  0
ARC
  8
2
 10
-689.353820
 20
656.383078
 40
3.000000
 50
270.000000
 51
360.000000
  0
LINE
  8
2
 10
-711.931170
 20
652.383078
 11
-715.106596
 21
646.883078
  0
ARC
  8
2
 10
-710.199119
 20
651.383078
 40
2.000000
 50
90.000000
 51
150.000000
  0
ARC
  8
2
 10
-717.704673
 20
648.383078
 40
3.000000
 50
270.000000
 51
330.000000
  0
LINE
  8
2
 10
-530.776469
 20
652.383078
 11
-527.601043
 21
646.883078
  0
ARC
  8
2
 10
-532.508520
 20
651.383078
 40
2.000000
 50
30.000000
 51
90.000000
  0
ARC
  8
2
 10
-525.002967
 20
648.383078
 40
3.000000
 50
210.000000
 51
270.000000
  0
LINE
  8
2
 10
-556.353820
 20
657.383078
 11
-556.353820
 21
656.383078
  0
LINE
  8
2
 10
-586.353820
 20
657.383078
 11
-586.353820
 21
656.383078
  0
LINE
  8
2
 10
-656.353820
 20
657.383078
 11
-656.353820
 21
656.383078
  0
LINE
  8
2
 10
-686.353820
 20
657.383078
 11
-686.353820
 21
656.383078
  0
LINE
  8
2
 10
-585.203820
 20
658.383078
 11
-585.203820
 21
670.026305
  0
LINE
  8
2
 10
-585.203820
 20
670.026305
 11
-582.853820
 21
671.383078
  0
LINE
  8
2
 10
-578.278820
 20
658.383078
 11
-578.278820
 21
670.026305
  0
ARC
  8
2
 10
-581.741320
 20
665.575144
 40
5.639303
 50
52.121121
 51
127.878879
  0
ARC
  8
2
 10
-571.353820
 20
650.439447
 40
20.775000
 50
70.528781
 51
109.471223
  0
LINE
  8
2
 10
-557.503820
 20
658.383078
 11
-557.503820
 21
670.026305
  0
LINE
  8
2
 10
-557.503820
 20
670.026305
 11
-559.853820
 21
671.383078
  0
LINE
  8
2
 10
-559.853820
 20
671.383078
 11
-582.853820
 21
671.383078
  0
LINE
  8
2
 10
-564.428820
 20
658.383078
 11
-564.428820
 21
670.026305
  0
ARC
  8
2
 10
-560.966320
 20
665.575144
 40
5.639303
 50
52.121121
 51
127.878879
  0
LINE
  8
2
 10
-685.203820
 20
658.383078
 11
-685.203820
 21
670.026305
  0
LINE
  8
2
 10
-685.203820
 20
670.026305
 11
-682.853820
 21
671.383078
  0
LINE
  8
2
 10
-678.278820
 20
658.383078
 11
-678.278820
 21
670.026305
  0
ARC
  8
2
 10
-681.741320
 20
665.575144
 40
5.639303
 50
52.121121
 51
127.878879
  0
ARC
  8
2
 10
-671.353820
 20
650.439447
 40
20.775000
 50
70.528781
 51
109.471223
  0
LINE
  8
2
 10
-657.503820
 20
658.383078
 11
-657.503820
 21
670.026305
  0
LINE
  8
2
 10
-657.503820
 20
670.026305
 11
-659.853820
 21
671.383078
  0
LINE
  8
2
 10
-659.853820
 20
671.383078
 11
-682.853820
 21
671.383078
  0
LINE
  8
2
 10
-664.428820
 20
658.383078
 11
-664.428820
 21
670.026305
  0
ARC
  8
2
 10
-660.966320
 20
665.575144
 40
5.639303
 50
52.121121
 51
127.878879
  0
LINE
  8
2
 10
-564.436320
 20
681.383078
 11
-563.353820
 21
680.300578
  0
LINE
  8
2
 10
-563.353820
 20
680.300578
 11
-563.353820
 21
671.383078
  0
LINE
  8
2
 62
2
 10
-564.436320
 20
681.383078
 11
-564.436320
 21
671.383078
  0
LINE
  8
2
 10
-564.436320
 20
681.383078
 11
-578.271320
 21
681.383078
  0
LINE
  8
2
 10
-578.271320
 20
681.383078
 11
-579.353820
 21
680.300578
  0
LINE
  8
2
 10
-579.353820
 20
680.300578
 11
-579.353820
 21
671.383078
  0
LINE
  8
2
 10
-579.353820
 20
680.300578
 11
-563.353820
 21
680.300578
  0
LINE
  8
2
 62
2
 10
-578.271320
 20
681.383078
 11
-578.271320
 21
671.383078
  0
LINE
  8
2
 10
-664.436320
 20
681.383078
 11
-663.353820
 21
680.300578
  0
LINE
  8
2
 10
-663.353820
 20
680.300578
 11
-663.353820
 21
671.383078
  0
LINE
  8
2
 62
2
 10
-664.436320
 20
681.383078
 11
-664.436320
 21
671.383078
  0
LINE
  8
2
 10
-664.436320
 20
681.383078
 11
-678.271320
 21
681.383078
  0
LINE
  8
2
 10
-678.271320
 20
681.383078
 11
-679.353820
 21
680.300578
  0
LINE
  8
2
 10
-679.353820
 20
680.300578
 11
-679.353820
 21
671.383078
  0
LINE
  8
2
 10
-679.353820
 20
680.300578
 11
-663.353820
 21
680.300578
  0
LINE
  8
2
 62
2
 10
-678.271320
 20
681.383078
 11
-678.271320
 21
671.383078
  0
LINE
  8
2
 10
-503.353820
 20
601.383078
 11
-498.353820
 21
601.383078
  0
LINE
  8
2
 10
-503.353820
 20
489.383078
 11
-498.353820
 21
489.383078
  0
LINE
  8
2
 10
-753.353820
 20
489.383078
 11
-758.353820
 21
489.383078
  0
LINE
  8
2
 10
-753.353820
 20
601.383078
 11
-758.353820
 21
601.383078
  0
LINE
  8
2
 10
-510.353820
 20
608.383078
 11
-510.353820
 21
613.383078
  0
LINE
  8
2
 10
-621.353820
 20
608.383078
 11
-621.353820
 21
613.383078
  0
LINE
  8
2
 10
-635.353820
 20
608.383078
 11
-635.353820
 21
613.383078
  0
LINE
  8
2
 10
-746.353820
 20
608.383078
 11
-746.353820
 21
613.383078
  0
LINE
  8
2
 10
-746.353820
 20
482.383078
 11
-746.353820
 21
477.383078
  0
LINE
  8
2
 10
-635.353820
 20
482.383078
 11
-635.353820
 21
477.383078
  0
LINE
  8
2
 10
-621.353820
 20
482.383078
 11
-621.353820
 21
477.383078
  0
LINE
  8
2
 10
-510.353820
 20
482.383078
 11
-510.353820
 21
477.383078
  0
ARC
  8
2
 10
-503.353820
 20
608.383078
 40
7.000000
 50
180.000000
 51
270.000000
  0
ARC
  8
2
 10
-498.353820
 20
599.383078
 40
2.000000
 50
0.000000
 51
90.000000
  0
ARC
  8
2
 10
-512.353820
 20
613.383078
 40
2.000000
 50
0.000000
 51
90.000000
  0
ARC
  8
2
 10
-628.353820
 20
608.383078
 40
7.000000
 50
180.000000
 51
360.000000
  0
ARC
  8
2
 10
-637.353820
 20
613.383078
 40
2.000000
 50
0.000000
 51
90.000000
  0
ARC
  8
2
 10
-619.353820
 20
613.383078
 40
2.000000
 50
90.000000
 51
180.000000
  0
ARC
  8
2
 10
-753.353820
 20
608.383078
 40
7.000000
 50
270.000000
 51
360.000000
  0
ARC
  8
2
 10
-744.353820
 20
613.383078
 40
2.000000
 50
90.000000
 51
180.000000
  0
ARC
  8
2
 10
-758.353820
 20
599.383078
 40
2.000000
 50
90.000000
 51
180.000000
  0
ARC
  8
2
 10
-753.353820
 20
482.383078
 40
7.000000
 50
0.000000
 51
90.000000
  0
ARC
  8
2
 10
-744.353820
 20
477.383078
 40
2.000000
 50
180.000000
 51
270.000000
  0
ARC
  8
2
 10
-758.353820
 20
491.383078
 40
2.000000
 50
180.000000
 51
270.000000
  0
ARC
  8
2
 10
-628.353820
 20
482.383078
 40
7.000000
 50
360.000000
 51
180.000000
  0
ARC
  8
2
 10
-637.353820
 20
477.383078
 40
2.000000
 50
270.000000
 51
360.000000
  0
ARC
  8
2
 10
-619.353820
 20
477.383078
 40
2.000000
 50
180.000000
 51
270.000000
  0
ARC
  8
2
 10
-503.353820
 20
482.383078
 40
7.000000
 50
90.000000
 51
180.000000
  0
ARC
  8
2
 10
-498.353820
 20
491.383078
 40
2.000000
 50
270.000000
 51
360.000000
  0
ARC
  8
2
 10
-512.353820
 20
477.383078
 40
2.000000
 50
270.000000
 51
360.000000
  0
LINE
  8
2
 10
-458.353820
 20
435.383078
 11
-842.353820
 21
435.383078
  0
LINE
  8
2
 10
-466.830702
 20
420.383078
 11
-833.873915
 21
420.383078
  0
LINE
  8
2
 10
-468.549452
 20
387.383078
 11
-811.749858
 21
387.383078
  0
LINE
  8
2
 10
-817.545413
 20
391.830164
 11
-824.600346
 21
418.159535
  0
ARC
  8
2
 10
-811.749858
 20
393.383078
 40
6.000000
 50
195.000000
 51
270.000000
  0
LINE
  8
2
 10
-460.452568
 20
433.487104
 11
-462.557574
 21
393.071001
  0
ARC
  8
2
 10
-468.549452
 20
393.383078
 40
6.000000
 50
270.000000
 51
357.018539
  0
LINE
  8
2
 10
-840.254490
 20
433.487750
 11
-839.865693
 21
426.069062
  0
ARC
  8
2
 10
-833.873915
 20
426.383078
 40
6.000000
 50
183.000000
 51
270.000000
  0
ARC
  8
2
 10
-827.498124
 20
417.383078
 40
3.000000
 50
15.000000
 51
90.000000
  0
ARC
  8
2
 10
-842.251749
 20
433.383078
 40
2.000000
 50
3.000000
 51
90.000000
  0
ARC
  8
2
 10
-842.353820
 20
437.383078
 40
2.000000
 50
180.000000
 51
270.000000
  0
ARC
  8
2
 10
-466.830702
 20
426.383078
 40
6.000000
 50
270.000000
 51
357.018539
  0
ARC
  8
2
 10
-458.455275
 20
433.383078
 40
2.000000
 50
90.000000
 51
177.018539
  0
ARC
  8
2
 10
-458.353820
 20
437.383078
 40
2.000000
 50
270.000000
 51
0.000000
  0
LINE
  8
2
 10
-500.371118
 20
353.383078
 11
-545.336521
 21
353.383078
  0
LINE
  8
2
 10
-505.751749
 20
340.383078
 11
-539.955890
 21
340.383078
  0
LINE
  8
2
 10
-548.290944
 20
355.862133
 11
-552.391856
 21
379.119560
  0
LINE
  8
2
 10
-497.416695
 20
355.862133
 11
-493.315783
 21
379.119560
  0
LINE
  8
2
 10
-503.754490
 20
342.278406
 11
-503.271848
 21
351.487750
  0
LINE
  8
2
 10
-541.953149
 20
342.278406
 11
-542.435791
 21
351.487750
  0
ARC
  8
2
 10
-500.371118
 20
356.383078
 40
3.000000
 50
270.000000
 51
350.000000
  0
ARC
  8
2
 10
-545.336521
 20
356.383078
 40
3.000000
 50
190.000000
 51
270.000000
  0
ARC
  8
2
 10
-501.274589
 20
351.383078
 40
2.000000
 50
90.000000
 51
177.000000
  0
ARC
  8
2
 10
-544.433050
 20
351.383078
 40
2.000000
 50
3.000000
 51
90.000000
  0
ARC
  8
2
 10
-505.751749
 20
342.383078
 40
2.000000
 50
270.000000
 51
357.000000
  0
ARC
  8
2
 10
-539.955890
 20
342.383078
 40
2.000000
 50
183.000000
 51
270.000000
  0
ARC
  8
2
 10
-483.467706
 20
377.383078
 40
10.000000
 50
90.000000
 51
170.000000
  0
ARC
  8
2
 10
-562.239933
 20
377.383078
 40
10.000000
 50
10.000000
 51
90.000000
  0
LINE
  8
2
 10
-485.853820
 20
420.883078
 11
-485.853820
 21
434.883078
  0
LINE
  8
2
 10
-466.128549
 20
421.016065
 11
-466.128549
 21
434.883078
  0
ARC
  8
2
 10
-486.353820
 20
420.883078
 40
0.500000
 50
270.000000
 51
360.000000
  0
ARC
  8
2
 10
-485.353820
 20
434.883078
 40
0.500000
 50
90.000000
 51
180.000000
  0
ARC
  8
2
 10
-466.628549
 20
434.883078
 40
0.500000
 50
0.000000
 51
90.000000
  0
ARC
  8
2
 10
-465.628549
 20
421.016065
 40
0.500000
 50
180.000000
 51
282.625246
  0
LINE
  8
2
 10
-577.853820
 20
420.383078
 11
-577.853820
 21
435.383078
  0
LINE
  8
2
 10
-594.853820
 20
420.383078
 11
-594.853820
 21
435.383078
  0
LINE
  8
2
 10
-712.853820
 20
420.383078
 11
-712.853820
 21
435.383078
  0
LINE
  8
2
 10
-729.853820
 20
420.383078
 11
-729.853820
 21
435.383078
  0
LINE
  8
2
 10
-593.542054
 20
420.383078
 11
-589.968405
 21
387.383078
  0
LINE
  8
2
 10
-581.006508
 20
387.383078
 11
-578.457346
 21
420.383078
  0
LINE
  8
2
 10
-726.465788
 20
416.206767
 11
-726.465788
 21
420.383078
  0
LINE
  8
2
 10
-715.086410
 20
416.206767
 11
-715.086410
 21
420.383078
  0
ARC
  8
2
 10
-720.776099
 20
416.206767
 40
5.689689
 50
180.000000
 51
360.000000
  0
LINE
  8
2
  6
CENTER
 62
2
 10
-621.353820
 20
682.631605
 11
-621.353820
 21
369.448906
  0
LINE
  8
2
  6
CENTER
 62
2
 10
-487.353820
 20
536.839854
 11
-487.353820
 21
553.926302
  0
LINE
  8
2
  6
CENTER
 62
2
 10
-487.353820
 20
451.839854
 11
-487.353820
 21
468.926302
  0
LINE
  8
2
  6
CENTER
 62
2
 10
-478.810596
 20
460.383078
 11
-495.897043
 21
460.383078
  0
LINE
  8
2
  6
CENTER
 62
2
 10
-705.353820
 20
451.839854
 11
-705.353820
 21
468.926302
  0
LINE
  8
2
  6
CENTER
 62
2
 10
-696.810596
 20
460.383078
 11
-713.897043
 21
460.383078
  0
LINE
  8
2
  6
CENTER
 62
2
 10
-558.353820
 20
451.839854
 11
-558.353820
 21
468.926302
  0
LINE
  8
2
  6
CENTER
 62
2
 10
-549.810596
 20
460.383078
 11
-566.897043
 21
460.383078
  0
LINE
  8
2
  6
CENTER
 62
2
 10
-508.418215
 20
570.383078
 11
-474.218403
 21
570.383078
  0
LINE
  8
2
  6
CENTER
 62
2
 10
-508.418215
 20
520.383078
 11
-474.218403
 21
520.383078
  0
LINE
  8
2
  6
CENTER
 62
2
 10
-522.853820
 20
657.224438
 11
-522.853820
 21
288.256273
  0
LINE
  8
2
  6
CENTER
 62
2
 10
-671.353820
 20
690.956312
 11
-671.353820
 21
636.509054
  0
LINE
  8
2
  6
CENTER
 62
2
 10
-571.353820
 20
690.956312
 11
-571.353820
 21
636.509054
  0
LINE
  8
2
  6
CENTER
 62
2
 10
-503.353820
 20
599.771672
 11
-503.353820
 21
616.994484
  0
LINE
  8
2
  6
CENTER
 62
2
 10
-494.742413
 20
608.383078
 11
-511.965226
 21
608.383078
  0
LINE
  8
2
  6
CENTER
 62
2
 10
-503.353820
 20
490.994484
 11
-503.353820
 21
473.771672
  0
LINE
  8
2
  6
CENTER
 62
2
 10
-494.742413
 20
482.383078
 11
-511.965226
 21
482.383078
  0
LINE
  8
2
  6
CENTER
 62
2
 10
-753.353820
 20
599.771672
 11
-753.353820
 21
616.994484
  0
LINE
  8
2
  6
CENTER
 62
2
 10
-761.965226
 20
608.383078
 11
-744.742413
 21
608.383078
  0
LINE
  8
2
  6
CENTER
 62
2
 10
-753.353820
 20
490.994484
 11
-753.353820
 21
473.771672
  0
LINE
  8
2
  6
CENTER
 62
2
 10
-761.965226
 20
482.383078
 11
-744.742413
 21
482.383078
  0
LINE
  8
2
  6
CENTER
 62
2
 10
-628.353820
 20
599.771672
 11
-628.353820
 21
616.994484
  0
LINE
  8
2
  6
CENTER
 62
2
 10
-619.742413
 20
608.383078
 11
-636.965226
 21
608.383078
  0
LINE
  8
2
  6
CENTER
 62
2
 10
-628.353820
 20
490.994484
 11
-628.353820
 21
473.771672
  0
LINE
  8
2
  6
CENTER
 62
2
 10
-619.742413
 20
482.383078
 11
-636.965226
 21
482.383078
  0
LINE
  8
2
  6
CENTER
 62
2
 10
-721.353820
 20
412.231611
 11
-721.353820
 21
449.228857
  0
LINE
  8
2
  6
CENTER
 62
2
 10
-586.353820
 20
412.231611
 11
-586.353820
 21
449.228857
  0
LINE
  8
2
  6
CENTER
 62
2
 10
-477.353820
 20
412.231611
 11
-477.353820
 21
449.228857
  0
CIRCLE
  8
2
 10
-558.353820
 20
460.383078
 40
5.000000
  0
CIRCLE
  8
2
 10
-558.353820
 20
460.383078
 40
4.307180
  0
CIRCLE
  8
2
 10
-705.353820
 20
460.383078
 40
5.000000
  0
CIRCLE
  8
2
 10
-705.353820
 20
460.383078
 40
4.307180
  0
CIRCLE
  8
2
 10
-487.353820
 20
460.383078
 40
5.000000
  0
CIRCLE
  8
2
 10
-487.353820
 20
460.383078
 40
4.307180
  0
CIRCLE
  8
2
 10
-503.353820
 20
482.383078
 40
5.750000
  0
CIRCLE
  8
2
 10
-503.353820
 20
482.383078
 40
5.250000
  0
LINE
  8
2
 10
-502.653820
 20
485.533078
 11
-504.053820
 21
485.533078
  0
LINE
  8
2
 10
-502.653820
 20
479.233078
 11
-504.053820
 21
479.233078
  0
LINE
  8
2
 10
-506.503820
 20
483.083078
 11
-506.503820
 21
481.683078
  0
LINE
  8
2
 10
-500.203820
 20
483.083078
 11
-500.203820
 21
481.683078
  0
LINE
  8
2
 10
-506.503820
 20
483.083078
 11
-505.053820
 21
483.083078
  0
LINE
  8
2
 10
-501.653820
 20
483.083078
 11
-500.203820
 21
483.083078
  0
LINE
  8
2
 10
-504.053820
 20
479.233078
 11
-504.053820
 21
480.683078
  0
LINE
  8
2
 10
-504.053820
 20
484.083078
 11
-504.053820
 21
485.533078
  0
LINE
  8
2
 10
-506.503820
 20
481.683078
 11
-505.053820
 21
481.683078
  0
LINE
  8
2
 10
-501.653820
 20
481.683078
 11
-500.203820
 21
481.683078
  0
LINE
  8
2
 10
-502.653820
 20
479.233078
 11
-502.653820
 21
480.683078
  0
LINE
  8
2
 10
-502.653820
 20
484.083078
 11
-502.653820
 21
485.533078
  0
ARC
  8
2
 10
-501.653820
 20
484.083078
 40
1.000000
 50
180.000000
 51
270.000000
  0
ARC
  8
2
 10
-505.053820
 20
484.083078
 40
1.000000
 50
270.000000
 51
360.000000
  0
ARC
  8
2
 10
-505.053820
 20
480.683078
 40
1.000000
 50
0.000000
 51
90.000000
  0
ARC
  8
2
 10
-501.653820
 20
480.683078
 40
1.000000
 50
90.000000
 51
180.000000
  0
CIRCLE
  8
2
 10
-503.353820
 20
608.383078
 40
5.750000
  0
CIRCLE
  8
2
 10
-503.353820
 20
608.383078
 40
5.250000
  0
LINE
  8
2
 10
-502.653820
 20
611.533078
 11
-504.053820
 21
611.533078
  0
LINE
  8
2
 10
-502.653820
 20
605.233078
 11
-504.053820
 21
605.233078
  0
LINE
  8
2
 10
-506.503820
 20
609.083078
 11
-506.503820
 21
607.683078
  0
LINE
  8
2
 10
-500.203820
 20
609.083078
 11
-500.203820
 21
607.683078
  0
LINE
  8
2
 10
-506.503820
 20
609.083078
 11
-505.053820
 21
609.083078
  0
LINE
  8
2
 10
-501.653820
 20
609.083078
 11
-500.203820
 21
609.083078
  0
LINE
  8
2
 10
-504.053820
 20
605.233078
 11
-504.053820
 21
606.683078
  0
LINE
  8
2
 10
-504.053820
 20
610.083078
 11
-504.053820
 21
611.533078
  0
LINE
  8
2
 10
-506.503820
 20
607.683078
 11
-505.053820
 21
607.683078
  0
LINE
  8
2
 10
-501.653820
 20
607.683078
 11
-500.203820
 21
607.683078
  0
LINE
  8
2
 10
-502.653820
 20
605.233078
 11
-502.653820
 21
606.683078
  0
LINE
  8
2
 10
-502.653820
 20
610.083078
 11
-502.653820
 21
611.533078
  0
ARC
  8
2
 10
-501.653820
 20
610.083078
 40
1.000000
 50
180.000000
 51
270.000000
  0
ARC
  8
2
 10
-505.053820
 20
610.083078
 40
1.000000
 50
270.000000
 51
360.000000
  0
ARC
  8
2
 10
-505.053820
 20
606.683078
 40
1.000000
 50
0.000000
 51
90.000000
  0
ARC
  8
2
 10
-501.653820
 20
606.683078
 40
1.000000
 50
90.000000
 51
180.000000
  0
CIRCLE
  8
2
 10
-628.353820
 20
482.383078
 40
5.750000
  0
CIRCLE
  8
2
 10
-628.353820
 20
482.383078
 40
5.250000
  0
LINE
  8
2
 10
-627.653820
 20
485.533078
 11
-629.053820
 21
485.533078
  0
LINE
  8
2
 10
-627.653820
 20
479.233078
 11
-629.053820
 21
479.233078
  0
LINE
  8
2
 10
-631.503820
 20
483.083078
 11
-631.503820
 21
481.683078
  0
LINE
  8
2
 10
-625.203820
 20
483.083078
 11
-625.203820
 21
481.683078
  0
LINE
  8
2
 10
-631.503820
 20
483.083078
 11
-630.053820
 21
483.083078
  0
LINE
  8
2
 10
-626.653820
 20
483.083078
 11
-625.203820
 21
483.083078
  0
LINE
  8
2
 10
-629.053820
 20
479.233078
 11
-629.053820
 21
480.683078
  0
LINE
  8
2
 10
-629.053820
 20
484.083078
 11
-629.053820
 21
485.533078
  0
LINE
  8
2
 10
-631.503820
 20
481.683078
 11
-630.053820
 21
481.683078
  0
LINE
  8
2
 10
-626.653820
 20
481.683078
 11
-625.203820
 21
481.683078
  0
LINE
  8
2
 10
-627.653820
 20
479.233078
 11
-627.653820
 21
480.683078
  0
LINE
  8
2
 10
-627.653820
 20
484.083078
 11
-627.653820
 21
485.533078
  0
ARC
  8
2
 10
-626.653820
 20
484.083078
 40
1.000000
 50
180.000000
 51
270.000000
  0
ARC
  8
2
 10
-630.053820
 20
484.083078
 40
1.000000
 50
270.000000
 51
360.000000
  0
ARC
  8
2
 10
-630.053820
 20
480.683078
 40
1.000000
 50
0.000000
 51
90.000000
  0
ARC
  8
2
 10
-626.653820
 20
480.683078
 40
1.000000
 50
90.000000
 51
180.000000
  0
CIRCLE
  8
2
 10
-628.353820
 20
608.383078
 40
5.750000
  0
CIRCLE
  8
2
 10
-628.353820
 20
608.383078
 40
5.250000
  0
LINE
  8
2
 10
-627.653820
 20
611.533078
 11
-629.053820
 21
611.533078
  0
LINE
  8
2
 10
-627.653820
 20
605.233078
 11
-629.053820
 21
605.233078
  0
LINE
  8
2
 10
-631.503820
 20
609.083078
 11
-631.503820
 21
607.683078
  0
LINE
  8
2
 10
-625.203820
 20
609.083078
 11
-625.203820
 21
607.683078
  0
LINE
  8
2
 10
-631.503820
 20
609.083078
 11
-630.053820
 21
609.083078
  0
LINE
  8
2
 10
-626.653820
 20
609.083078
 11
-625.203820
 21
609.083078
  0
LINE
  8
2
 10
-629.053820
 20
605.233078
 11
-629.053820
 21
606.683078
  0
LINE
  8
2
 10
-629.053820
 20
610.083078
 11
-629.053820
 21
611.533078
  0
LINE
  8
2
 10
-631.503820
 20
607.683078
 11
-630.053820
 21
607.683078
  0
LINE
  8
2
 10
-626.653820
 20
607.683078
 11
-625.203820
 21
607.683078
  0
LINE
  8
2
 10
-627.653820
 20
605.233078
 11
-627.653820
 21
606.683078
  0
LINE
  8
2
 10
-627.653820
 20
610.083078
 11
-627.653820
 21
611.533078
  0
ARC
  8
2
 10
-626.653820
 20
610.083078
 40
1.000000
 50
180.000000
 51
270.000000
  0
ARC
  8
2
 10
-630.053820
 20
610.083078
 40
1.000000
 50
270.000000
 51
360.000000
  0
ARC
  8
2
 10
-630.053820
 20
606.683078
 40
1.000000
 50
0.000000
 51
90.000000
  0
ARC
  8
2
 10
-626.653820
 20
606.683078
 40
1.000000
 50
90.000000
 51
180.000000
  0
CIRCLE
  8
2
 10
-753.353820
 20
482.383078
 40
5.750000
  0
CIRCLE
  8
2
 10
-753.353820
 20
482.383078
 40
5.250000
  0
LINE
  8
2
 10
-752.653820
 20
485.533078
 11
-754.053820
 21
485.533078
  0
LINE
  8
2
 10
-752.653820
 20
479.233078
 11
-754.053820
 21
479.233078
  0
LINE
  8
2
 10
-756.503820
 20
483.083078
 11
-756.503820
 21
481.683078
  0
LINE
  8
2
 10
-750.203820
 20
483.083078
 11
-750.203820
 21
481.683078
  0
LINE
  8
2
 10
-756.503820
 20
483.083078
 11
-755.053820
 21
483.083078
  0
LINE
  8
2
 10
-751.653820
 20
483.083078
 11
-750.203820
 21
483.083078
  0
LINE
  8
2
 10
-754.053820
 20
479.233078
 11
-754.053820
 21
480.683078
  0
LINE
  8
2
 10
-754.053820
 20
484.083078
 11
-754.053820
 21
485.533078
  0
LINE
  8
2
 10
-756.503820
 20
481.683078
 11
-755.053820
 21
481.683078
  0
LINE
  8
2
 10
-751.653820
 20
481.683078
 11
-750.203820
 21
481.683078
  0
LINE
  8
2
 10
-752.653820
 20
479.233078
 11
-752.653820
 21
480.683078
  0
LINE
  8
2
 10
-752.653820
 20
484.083078
 11
-752.653820
 21
485.533078
  0
ARC
  8
2
 10
-751.653820
 20
484.083078
 40
1.000000
 50
180.000000
 51
270.000000
  0
ARC
  8
2
 10
-755.053820
 20
484.083078
 40
1.000000
 50
270.000000
 51
360.000000
  0
ARC
  8
2
 10
-755.053820
 20
480.683078
 40
1.000000
 50
0.000000
 51
90.000000
  0
ARC
  8
2
 10
-751.653820
 20
480.683078
 40
1.000000
 50
90.000000
 51
180.000000
  0
CIRCLE
  8
2
 10
-753.353820
 20
608.383078
 40
5.750000
  0
CIRCLE
  8
2
 10
-753.353820
 20
608.383078
 40
5.250000
  0
LINE
  8
2
 10
-752.653820
 20
611.533078
 11
-754.053820
 21
611.533078
  0
LINE
  8
2
 10
-752.653820
 20
605.233078
 11
-754.053820
 21
605.233078
  0
LINE
  8
2
 10
-756.503820
 20
609.083078
 11
-756.503820
 21
607.683078
  0
LINE
  8
2
 10
-750.203820
 20
609.083078
 11
-750.203820
 21
607.683078
  0
LINE
  8
2
 10
-756.503820
 20
609.083078
 11
-755.053820
 21
609.083078
  0
LINE
  8
2
 10
-751.653820
 20
609.083078
 11
-750.203820
 21
609.083078
  0
LINE
  8
2
 10
-754.053820
 20
605.233078
 11
-754.053820
 21
606.683078
  0
LINE
  8
2
 10
-754.053820
 20
610.083078
 11
-754.053820
 21
611.533078
  0
LINE
  8
2
 10
-756.503820
 20
607.683078
 11
-755.053820
 21
607.683078
  0
LINE
  8
2
 10
-751.653820
 20
607.683078
 11
-750.203820
 21
607.683078
  0
LINE
  8
2
 10
-752.653820
 20
605.233078
 11
-752.653820
 21
606.683078
  0
LINE
  8
2
 10
-752.653820
 20
610.083078
 11
-752.653820
 21
611.533078
  0
ARC
  8
2
 10
-751.653820
 20
610.083078
 40
1.000000
 50
180.000000
 51
270.000000
  0
ARC
  8
2
 10
-755.053820
 20
610.083078
 40
1.000000
 50
270.000000
 51
360.000000
  0
ARC
  8
2
 10
-755.053820
 20
606.683078
 40
1.000000
 50
0.000000
 51
90.000000
  0
ARC
  8
2
 10
-751.653820
 20
606.683078
 40
1.000000
 50
90.000000
 51
180.000000
  0
LINE
  8
2
 10
-470.103820
 20
433.383078
 11
-484.603820
 21
433.383078
  0
LINE
  8
2
 10
-484.603820
 20
433.383078
 11
-484.603820
 21
435.383078
  0
LINE
  8
2
 10
-470.103820
 20
433.383078
 11
-470.103820
 21
435.383078
  0
LINE
  8
2
 10
-484.353820
 20
431.425029
 11
-484.353820
 21
433.383078
  0
LINE
  8
2
 10
-470.353820
 20
431.425029
 11
-470.353820
 21
433.383078
  0
ARC
  8
2
 10
-477.353820
 20
446.183078
 40
18.000000
 50
253.398450
 51
286.601550
  0
ARC
  8
2
 10
-481.753820
 20
431.425029
 40
2.600000
 50
180.000000
 51
253.398450
  0
ARC
  8
2
 10
-472.953820
 20
431.425029
 40
2.600000
 50
286.601550
 51
360.000000
  0
LINE
  8
2
 10
-579.103820
 20
433.383078
 11
-593.603820
 21
433.383078
  0
LINE
  8
2
 10
-593.603820
 20
433.383078
 11
-593.603820
 21
435.383078
  0
LINE
  8
2
 10
-579.103820
 20
433.383078
 11
-579.103820
 21
435.383078
  0
LINE
  8
2
 10
-593.353820
 20
431.425029
 11
-593.353820
 21
433.383078
  0
LINE
  8
2
 10
-579.353820
 20
431.425029
 11
-579.353820
 21
433.383078
  0
ARC
  8
2
 10
-586.353820
 20
446.183078
 40
18.000000
 50
253.398450
 51
286.601550
  0
ARC
  8
2
 10
-590.753820
 20
431.425029
 40
2.600000
 50
180.000000
 51
253.398450
  0
ARC
  8
2
 10
-581.953820
 20
431.425029
 40
2.600000
 50
286.601550
 51
360.000000
  0
LINE
  8
2
 10
-714.103820
 20
433.383078
 11
-728.603820
 21
433.383078
  0
LINE
  8
2
 10
-728.603820
 20
433.383078
 11
-728.603820
 21
435.383078
  0
LINE
  8
2
 10
-714.103820
 20
433.383078
 11
-714.103820
 21
435.383078
  0
LINE
  8
2
 10
-728.353820
 20
431.425029
 11
-728.353820
 21
433.383078
  0
LINE
  8
2
 10
-714.353820
 20
431.425029
 11
-714.353820
 21
433.383078
  0
ARC
  8
2
 10
-721.353820
 20
446.183078
 40
18.000000
 50
253.398450
 51
286.601550
  0
ARC
  8
2
 10
-725.753820
 20
431.425029
 40
2.600000
 50
180.000000
 51
253.398450
  0
ARC
  8
2
 10
-716.953820
 20
431.425029
 40
2.600000
 50
286.601550
 51
360.000000
  0
LINE
  8
2
 10
-840.249004
 20
433.383078
 11
-842.603820
 21
433.383078
  0
LINE
  8
2
 10
-842.603820
 20
433.383078
 11
-842.603820
 21
435.383078
  0
LINE
  8
2
 10
-842.353820
 20
431.425029
 11
-842.353820
 21
433.383078
  0
ARC
  8
2
 10
-835.353820
 20
446.183078
 40
18.000000
 50
253.398450
 51
255.013153
  0
ARC
  8
2
 10
-839.753820
 20
431.425029
 40
2.600000
 50
180.000000
 51
253.398450
  0
LINE
  8
2
 10
-743.975159
 20
492.383078
 11
-743.975159
 21
598.383078
  0
LINE
  8
2
 10
-500.290809
 20
492.383078
 11
-500.290809
 21
598.383078
  0
LINE
  8
2
 10
-743.353820
 20
611.446078
 11
-635.353820
 21
611.446078
  0
LINE
  8
2
 10
-621.353820
 20
611.446078
 11
-513.353820
 21
611.446078
  0
LINE
  8
2
 10
-621.353820
 20
479.320078
 11
-513.353820
 21
479.320078
  0
LINE
  8
2
 10
-743.353820
 20
479.320078
 11
-635.353820
 21
479.320078
  0
LINE
  8
2
 10
-487.353820
 20
551.383078
 11
-479.353820
 21
551.383078
  0
LINE
  8
2
 10
-487.353820
 20
539.383078
 11
-479.353820
 21
539.383078
  0
ARC
  8
2
 10
-487.353820
 20
545.383078
 40
6.000000
 50
90.000000
 51
270.000000
  0
ARC
  8
2
 10
-479.353820
 20
537.383078
 40
2.000000
 50
0.000000
 51
90.000000
  0
ARC
  8
2
 10
-479.353820
 20
553.383078
 40
2.000000
 50
270.000000
 51
0.000000
  0
LINE
  8
2
 10
-491.353820
 20
625.383078
 11
-479.353820
 21
625.383078
  0
LINE
  8
2
 10
-497.353820
 20
631.383078
 11
-497.353820
 21
643.383078
  0
ARC
  8
2
 10
-491.353820
 20
631.383078
 40
6.000000
 50
180.000000
 51
270.000000
  0
ARC
  8
2
 10
-479.353820
 20
623.383078
 40
2.000000
 50
0.000000
 51
90.000000
  0
ARC
  8
2
 10
-499.353820
 20
643.383078
 40
2.000000
 50
0.000000
 51
90.000000
  0
LINE
  8
2
 10
-552.353820
 20
635.383078
 11
-552.353820
 21
643.383078
  0
LINE
  8
2
 10
-564.353820
 20
635.383078
 11
-564.353820
 21
643.383078
  0
ARC
  8
2
 10
-558.353820
 20
635.383078
 40
6.000000
 50
180.000000
 51
360.000000
  0
ARC
  8
2
 10
-550.353820
 20
643.383078
 40
2.000000
 50
90.000000
 51
180.000000
  0
ARC
  8
2
 10
-566.353820
 20
643.383078
 40
2.000000
 50
0.000000
 51
90.000000
  0
LINE
  8
2
 10
-699.353820
 20
635.383078
 11
-699.353820
 21
643.383078
  0
LINE
  8
2
 10
-711.353820
 20
635.383078
 11
-711.353820
 21
643.383078
  0
ARC
  8
2
 10
-705.353820
 20
635.383078
 40
6.000000
 50
180.000000
 51
360.000000
  0
ARC
  8
2
 10
-697.353820
 20
643.383078
 40
2.000000
 50
90.000000
 51
180.000000
  0
ARC
  8
2
 10
-713.353820
 20
643.383078
 40
2.000000
 50
0.000000
 51
90.000000
  0
LINE
  8
2
 10
-824.353820
 20
631.383078
 11
-824.353820
 21
643.383078
  0
LINE
  8
2
 10
-830.353820
 20
625.383078
 11
-840.162706
 21
625.383078
  0
ARC
  8
2
 10
-830.353820
 20
631.383078
 40
6.000000
 50
270.000000
 51
360.000000
  0
ARC
  8
2
 10
-822.353820
 20
643.383078
 40
2.000000
 50
90.000000
 51
180.000000
  0
LINE
  8
2
 10
-835.353820
 20
551.383078
 11
-840.162706
 21
551.383078
  0
LINE
  8
2
 10
-835.353820
 20
539.383078
 11
-840.162706
 21
539.383078
  0
ARC
  8
2
 10
-835.353820
 20
545.383078
 40
6.000000
 50
270.000000
 51
90.000000
  0
LINE
  8
2
 10
-835.353820
 20
472.383078
 11
-840.162706
 21
472.383078
  0
LINE
  8
2
 10
-835.353820
 20
460.383078
 11
-840.162706
 21
460.383078
  0
ARC
  8
2
 10
-835.353820
 20
466.383078
 40
6.000000
 50
270.000000
 51
90.000000
  0
ARC
  8
2
 10
-840.162706
 20
474.383078
 40
2.000000
 50
180.000000
 51
270.000000
  0
ARC
  8
2
 10
-840.162706
 20
458.383078
 40
2.000000
 50
90.000000
 51
180.000000
  0
ARC
  8
2
 10
-840.162706
 20
553.383078
 40
2.000000
 50
180.000000
 51
270.000000
  0
ARC
  8
2
 10
-840.162706
 20
537.383078
 40
2.000000
 50
90.000000
 51
180.000000
  0
ARC
  8
2
 10
-840.162706
 20
623.383078
 40
2.000000
 50
90.000000
 51
180.000000
  0
LINE
  8
2
 10
-842.162706
 20
460.383078
 11
-842.162706
 21
472.383078
  0
LINE
  8
2
 10
-842.162706
 20
539.383078
 11
-842.162706
 21
551.383078
  0
LINE
  8
2
  6
CENTER
 62
2
 10
-491.353820
 20
622.839854
 11
-491.353820
 21
639.926302
  0
LINE
  8
2
  6
CENTER
 62
2
 10
-483.536550
 20
631.383078
 11
-499.897043
 21
631.383078
  0
LINE
  8
2
  6
CENTER
 62
2
 10
-558.353820
 20
626.839854
 11
-558.353820
 21
643.926302
  0
LINE
  8
2
  6
CENTER
 62
2
 10
-549.810596
 20
635.383078
 11
-566.897043
 21
635.383078
  0
LINE
  8
2
  6
CENTER
 62
2
 10
-705.353820
 20
626.839854
 11
-705.353820
 21
642.730511
  0
LINE
  8
2
  6
CENTER
 62
2
 10
-696.810596
 20
635.383078
 11
-713.897043
 21
635.383078
  0
LINE
  8
2
  6
CENTER
 62
2
 10
-830.353820
 20
622.839854
 11
-830.353820
 21
639.926302
  0
LINE
  8
2
  6
CENTER
 62
2
 10
-821.810596
 20
631.383078
 11
-838.897043
 21
631.383078
  0
LINE
  8
2
  6
CENTER
 62
2
 10
-835.353820
 20
536.839854
 11
-835.353820
 21
553.926302
  0
LINE
  8
2
  6
CENTER
 62
2
 10
-835.353820
 20
457.839854
 11
-835.353820
 21
474.926302
  0
LINE
  8
2
  6
CENTER
 62
2
 10
-826.810596
 20
466.383078
 11
-843.897043
 21
466.383078
  0
CIRCLE
  8
2
 10
-487.353820
 20
545.383078
 40
5.000000
  0
CIRCLE
  8
2
 10
-487.353820
 20
545.383078
 40
4.307180
  0
CIRCLE
  8
2
 10
-491.353820
 20
631.383078
 40
5.000000
  0
CIRCLE
  8
2
 10
-491.353820
 20
631.383078
 40
4.307180
  0
CIRCLE
  8
2
 10
-558.353820
 20
635.383078
 40
5.000000
  0
CIRCLE
  8
2
 10
-558.353820
 20
635.383078
 40
4.307180
  0
CIRCLE
  8
2
 10
-705.353820
 20
635.383078
 40
5.000000
  0
CIRCLE
  8
2
 10
-705.353820
 20
635.383078
 40
4.307180
  0
CIRCLE
  8
2
 10
-830.353820
 20
631.383078
 40
5.000000
  0
CIRCLE
  8
2
 10
-830.353820
 20
631.383078
 40
4.307180
  0
CIRCLE
  8
2
 10
-835.353820
 20
545.383078
 40
5.000000
  0
CIRCLE
  8
2
 10
-835.353820
 20
545.383078
 40
4.307180
  0
CIRCLE
  8
2
 10
-835.353820
 20
466.383078
 40
5.000000
  0
CIRCLE
  8
2
 10
-835.353820
 20
466.383078
 40
4.307180
  0
LINE
  8
2
 10
-489.853820
 20
458.939702
 11
-489.853820
 21
461.826454
  0
LINE
  8
2
 10
-484.853820
 20
458.939702
 11
-484.853820
 21
461.826454
  0
LINE
  8
2
 10
-487.353820
 20
457.496327
 11
-489.853820
 21
458.939702
  0
LINE
  8
2
 10
-484.853820
 20
461.826454
 11
-487.353820
 21
463.269829
  0
LINE
  8
2
 10
-484.853820
 20
458.939702
 11
-487.353820
 21
457.496327
  0
LINE
  8
2
 10
-487.353820
 20
463.269829
 11
-489.853820
 21
461.826454
  0
LINE
  8
2
 10
-560.853820
 20
458.939702
 11
-560.853820
 21
461.826454
  0
LINE
  8
2
 10
-555.853820
 20
458.939702
 11
-555.853820
 21
461.826454
  0
LINE
  8
2
 10
-558.353820
 20
457.496327
 11
-560.853820
 21
458.939702
  0
LINE
  8
2
 10
-555.853820
 20
461.826454
 11
-558.353820
 21
463.269829
  0
LINE
  8
2
 10
-555.853820
 20
458.939702
 11
-558.353820
 21
457.496327
  0
LINE
  8
2
 10
-558.353820
 20
463.269829
 11
-560.853820
 21
461.826454
  0
LINE
  8
2
 10
-489.853820
 20
543.939702
 11
-489.853820
 21
546.826454
  0
LINE
  8
2
 10
-484.853820
 20
543.939702
 11
-484.853820
 21
546.826454
  0
LINE
  8
2
 10
-487.353820
 20
542.496327
 11
-489.853820
 21
543.939702
  0
LINE
  8
2
 10
-484.853820
 20
546.826454
 11
-487.353820
 21
548.269829
  0
LINE
  8
2
 10
-484.853820
 20
543.939702
 11
-487.353820
 21
542.496327
  0
LINE
  8
2
 10
-487.353820
 20
548.269829
 11
-489.853820
 21
546.826454
  0
LINE
  8
2
 10
-493.853820
 20
629.939702
 11
-493.853820
 21
632.826454
  0
LINE
  8
2
 10
-488.853820
 20
629.939702
 11
-488.853820
 21
632.826454
  0
LINE
  8
2
 10
-491.353820
 20
628.496327
 11
-493.853820
 21
629.939702
  0
LINE
  8
2
 10
-488.853820
 20
632.826454
 11
-491.353820
 21
634.269829
  0
LINE
  8
2
 10
-488.853820
 20
629.939702
 11
-491.353820
 21
628.496327
  0
LINE
  8
2
 10
-491.353820
 20
634.269829
 11
-493.853820
 21
632.826454
  0
LINE
  8
2
 10
-560.853820
 20
633.939702
 11
-560.853820
 21
636.826454
  0
LINE
  8
2
 10
-555.853820
 20
633.939702
 11
-555.853820
 21
636.826454
  0
LINE
  8
2
 10
-558.353820
 20
632.496327
 11
-560.853820
 21
633.939702
  0
LINE
  8
2
 10
-555.853820
 20
636.826454
 11
-558.353820
 21
638.269829
  0
LINE
  8
2
 10
-555.853820
 20
633.939702
 11
-558.353820
 21
632.496327
  0
LINE
  8
2
 10
-558.353820
 20
638.269829
 11
-560.853820
 21
636.826454
  0
LINE
  8
2
 10
-707.853820
 20
458.939702
 11
-707.853820
 21
461.826454
  0
LINE
  8
2
 10
-702.853820
 20
458.939702
 11
-702.853820
 21
461.826454
  0
LINE
  8
2
 10
-705.353820
 20
457.496327
 11
-707.853820
 21
458.939702
  0
LINE
  8
2
 10
-702.853820
 20
461.826454
 11
-705.353820
 21
463.269829
  0
LINE
  8
2
 10
-702.853820
 20
458.939702
 11
-705.353820
 21
457.496327
  0
LINE
  8
2
 10
-705.353820
 20
463.269829
 11
-707.853820
 21
461.826454
  0
LINE
  8
2
 10
-707.853820
 20
633.939702
 11
-707.853820
 21
636.826454
  0
LINE
  8
2
 10
-702.853820
 20
633.939702
 11
-702.853820
 21
636.826454
  0
LINE
  8
2
 10
-705.353820
 20
632.496327
 11
-707.853820
 21
633.939702
  0
LINE
  8
2
 10
-702.853820
 20
636.826454
 11
-705.353820
 21
638.269829
  0
LINE
  8
2
 10
-702.853820
 20
633.939702
 11
-705.353820
 21
632.496327
  0
LINE
  8
2
 10
-705.353820
 20
638.269829
 11
-707.853820
 21
636.826454
  0
LINE
  8
2
 10
-832.853820
 20
629.939702
 11
-832.853820
 21
632.826454
  0
LINE
  8
2
 10
-827.853820
 20
629.939702
 11
-827.853820
 21
632.826454
  0
LINE
  8
2
 10
-830.353820
 20
628.496327
 11
-832.853820
 21
629.939702
  0
LINE
  8
2
 10
-827.853820
 20
632.826454
 11
-830.353820
 21
634.269829
  0
LINE
  8
2
 10
-827.853820
 20
629.939702
 11
-830.353820
 21
628.496327
  0
LINE
  8
2
 10
-830.353820
 20
634.269829
 11
-832.853820
 21
632.826454
  0
LINE
  8
2
 10
-837.853820
 20
464.939702
 11
-837.853820
 21
467.826454
  0
LINE
  8
2
 10
-832.853820
 20
464.939702
 11
-832.853820
 21
467.826454
  0
LINE
  8
2
 10
-835.353820
 20
463.496327
 11
-837.853820
 21
464.939702
  0
LINE
  8
2
 10
-832.853820
 20
467.826454
 11
-835.353820
 21
469.269829
  0
LINE
  8
2
 10
-832.853820
 20
464.939702
 11
-835.353820
 21
463.496327
  0
LINE
  8
2
 10
-835.353820
 20
469.269829
 11
-837.853820
 21
467.826454
  0
LINE
  8
2
 10
-837.853820
 20
543.939702
 11
-837.853820
 21
546.826454
  0
LINE
  8
2
 10
-832.853820
 20
543.939702
 11
-832.853820
 21
546.826454
  0
LINE
  8
2
 10
-835.353820
 20
542.496327
 11
-837.853820
 21
543.939702
  0
LINE
  8
2
 10
-832.853820
 20
546.826454
 11
-835.353820
 21
548.269829
  0
LINE
  8
2
 10
-832.853820
 20
543.939702
 11
-835.353820
 21
542.496327
  0
LINE
  8
2
 10
-835.353820
 20
548.269829
 11
-837.853820
 21
546.826454
  0
TEXT
  8
2
 10
-615.108887
 20
173.806890
 40
7.600000
  1
Ｓ
 50
31.641000
  0
TEXT
  8
2
 10
-615.934334
 20
522.369404
 40
7.600000
  1
Ｓ
 50
22.500000
  0
TEXT
  8
2
 10
-626.773305
 20
568.396752
 40
7.600000
  1
Ｓ
 50
202.500000
  0
ARC
  8
2
 10
-522.853820
 20
38.399473
 40
114.000000
 50
27.677778
 51
80.333333
  0
ARC
  8
2
 10
-522.853820
 20
38.399473
 40
132.000000
 50
53.010869
 51
126.989131
  0
ARC
  8
2
 10
-504.703820
 20
144.849473
 40
6.000000
 50
80.322222
 51
181.300000
  0
CIRCLE
  8
2
 10
-522.853820
 20
38.399473
 40
140.000000
  0
ARC
  8
2
 10
-522.853820
 20
38.399473
 40
114.000000
 50
99.666667
 51
152.322222
  0
ARC
  8
2
 10
-522.853820
 20
38.399473
 40
114.000000
 50
171.677778
 51
224.322222
  0
ARC
  8
2
 10
-522.853820
 20
38.399473
 40
114.000000
 50
243.677778
 51
296.322222
  0
ARC
  8
2
 10
-522.853820
 20
38.399473
 40
114.000000
 50
315.677777
 51
8.322222
  0
ARC
  8
2
 10
-522.853820
 20
38.399473
 40
114.000000
 50
85.700000
 51
94.155555
  0
LINE
  8
2
  6
CENTER
 62
2
 10
-544.373253
 20
45.370184
 11
-660.015106
 21
82.985315
  0
ARC
  8
2
 10
-522.853820
 20
38.399473
 40
30.000000
 50
123.588889
 51
128.433333
  0
ARC
  8
2
 10
-522.853820
 20
38.399473
 40
30.000000
 50
195.566666
 51
200.488889
  0
ARC
  8
2
 10
-522.853820
 20
38.399473
 40
30.000000
 50
267.033333
 51
272.966666
  0
ARC
  8
2
 10
-522.853820
 20
38.399473
 40
30.000000
 50
339.511111
 51
344.433333
  0
ARC
  8
2
 10
-522.853820
 20
38.399473
 40
30.000000
 50
51.566667
 51
56.411111
  0
LINE
  8
2
 10
-535.003820
 20
144.699473
 11
-536.753820
 21
68.249473
  0
ARC
  8
2
 10
-541.003820
 20
144.849473
 40
6.000000
 50
358.700000
 51
99.677778
  0
ARC
  8
2
 10
-542.753820
 20
68.399473
 40
6.000000
 50
303.555555
 51
358.677777
  0
LINE
  8
2
 10
-508.953820
 20
68.249473
 11
-510.703820
 21
144.699473
  0
ARC
  8
2
 10
-502.953820
 20
68.399473
 40
6.000000
 50
181.322222
 51
236.444444
  0
ARC
  8
2
 10
-522.853820
 20
38.399473
 40
114.000000
 50
157.700000
 51
166.155555
  0
LINE
  8
2
 10
-627.703820
 20
59.699473
 11
-555.553820
 21
34.399473
  0
ARC
  8
2
 10
-629.703820
 20
54.049473
 40
6.000000
 50
70.700000
 51
171.677778
  0
ARC
  8
2
 10
-557.553820
 20
28.749473
 40
6.000000
 50
15.555556
 51
70.677778
  0
LINE
  8
2
 10
-546.953820
 20
60.849473
 11
-620.203820
 21
82.799473
  0
ARC
  8
2
 10
-618.503820
 20
88.549473
 40
6.000000
 50
152.322222
 51
253.300000
  0
ARC
  8
2
 10
-545.253820
 20
66.599473
 40
6.000000
 50
253.322222
 51
308.444444
  0
LINE
  8
2
  6
CENTER
 62
2
 10
-535.618805
 20
20.771878
 11
-607.039819
 21
-77.486787
  0
ARC
  8
2
 10
-522.853820
 20
38.399473
 40
114.000000
 50
229.700000
 51
238.155555
  0
LINE
  8
2
 10
-575.503820
 20
-54.750527
 11
-529.153820
 21
6.049473
  0
ARC
  8
2
 10
-570.753820
 20
-58.400527
 40
6.000000
 50
142.700000
 51
243.677778
  0
ARC
  8
2
 10
-524.403820
 20
2.399473
 40
6.000000
 50
87.555555
 51
142.677778
  0
LINE
  8
2
 10
-551.653820
 20
22.399473
 11
-595.153820
 21
-40.450527
  0
ARC
  8
2
 10
-600.103820
 20
-37.050527
 40
6.000000
 50
224.322222
 51
325.300000
  0
ARC
  8
2
 10
-556.603820
 20
25.799473
 40
6.000000
 50
325.322222
 51
20.444444
  0
LINE
  8
2
  6
CENTER
 62
2
 10
-510.726799
 20
21.767851
 11
-438.401811
 21
-77.866341
  0
ARC
  8
2
 10
-522.853820
 20
38.399473
 40
114.000000
 50
301.700000
 51
310.155555
  0
LINE
  8
2
 10
-450.553820
 20
-40.450527
 11
-494.053820
 21
22.399473
  0
ARC
  8
2
 10
-445.603820
 20
-37.050527
 40
6.000000
 50
214.700000
 51
315.677777
  0
ARC
  8
2
 10
-489.103820
 20
25.799473
 40
6.000000
 50
159.555555
 51
214.677778
  0
LINE
  8
2
 10
-516.553820
 20
6.049473
 11
-470.203820
 21
-54.750527
  0
ARC
  8
2
 10
-474.953820
 20
-58.400527
 40
6.000000
 50
296.322222
 51
37.300000
  0
ARC
  8
2
 10
-521.303820
 20
2.399473
 40
6.000000
 50
37.322222
 51
92.444444
  0
LINE
  8
2
  6
CENTER
 62
2
 10
-501.469078
 20
45.391201
 11
-385.327057
 21
83.096076
  0
ARC
  8
2
 10
-522.853820
 20
38.399473
 40
114.000000
 50
13.700000
 51
22.155556
  0
LINE
  8
2
 10
-425.503820
 20
82.799473
 11
-498.753820
 21
60.849473
  0
ARC
  8
2
 10
-427.203820
 20
88.549473
 40
6.000000
 50
286.700000
 51
27.677778
  0
ARC
  8
2
 10
-500.453820
 20
66.599473
 40
6.000000
 50
231.555555
 51
286.677777
  0
LINE
  8
2
 10
-490.153820
 20
34.399473
 11
-418.003820
 21
59.699473
  0
ARC
  8
2
 10
-416.003820
 20
54.049473
 40
6.000000
 50
8.322222
 51
109.300000
  0
ARC
  8
2
 10
-488.153820
 20
28.749473
 40
6.000000
 50
109.322222
 51
164.444444
  0
ARC
  8
2
 10
-522.853820
 20
38.399473
 40
122.000000
 50
53.003708
 51
126.996292
  0
ARC
  8
2
 10
-522.853820
 20
38.399473
 40
127.000000
 50
127.533333
 51
52.708945
  0
LINE
  8
2
 10
-602.306790
 20
143.878892
 11
-596.265452
 21
135.833103
  0
ARC
  8
2
 10
-522.853820
 20
38.399473
 40
128.500000
 50
78.122222
 51
101.877778
  0
ARC
  8
2
 10
-522.853820
 20
38.399473
 40
125.500000
 50
78.111111
 51
101.888889
  0
LINE
  8
2
 10
-496.253820
 20
164.999473
 11
-497.203820
 21
160.099473
  0
LINE
  8
2
 10
-496.253820
 20
164.999473
 11
-490.003820
 21
161.049473
  0
LINE
  8
2
 10
-497.203820
 20
160.099473
 11
-490.003820
 21
161.049473
  0
CIRCLE
  8
2
 10
-522.853820
 20
38.399473
 40
25.000000
  0
LINE
  8
2
 10
-549.453820
 20
164.999473
 11
-548.503820
 21
160.099473
  0
LINE
  8
2
 10
-549.453820
 20
164.999473
 11
-555.703820
 21
161.049473
  0
LINE
  8
2
 10
-548.503820
 20
160.099473
 11
-555.703820
 21
161.049473
  0
TEXT
  8
2
 10
-592.509009
 20
139.801945
 40
8.000000
  1
Ｏ
 50
33.000000
 41
0.800000
  0
TEXT
  8
2
 10
-585.263364
 20
144.449603
 40
8.000000
  1
Ｐ
 50
29.000000
 41
0.800000
  0
TEXT
  8
2
 10
-577.713531
 20
148.521863
 40
8.000000
  1
Ｅ
 50
25.000000
 41
0.800000
  0
TEXT
  8
2
 10
-569.907805
 20
152.068374
 40
8.000000
  1
Ｎ
 50
21.000000
 41
0.800000
  0
LINE
  8
2
 10
-443.400849
 20
143.878892
 11
-449.442187
 21
135.833103
  0
TEXT
  8
2
 10
-481.774749
 20
154.361928
 40
8.000000
  1
Ｓ
 50
339.000000
 41
0.800000
  0
TEXT
  8
2
 10
-473.794478
 20
151.226620
 40
8.000000
  1
Ｈ
 50
335.000000
 41
0.800000
  0
TEXT
  8
2
 10
-466.041841
 20
147.552385
 40
8.000000
  1
Ｕ
 50
331.000000
 41
0.800000
  0
TEXT
  8
2
 10
-458.566122
 20
143.287635
 40
8.000000
  1
Ｔ
 50
327.000000
 41
0.800000
  0
CIRCLE
  8
2
 10
-522.853820
 20
38.399473
 40
20.000000
  0
LINE
  8
2
 10
-811.404831
 20
-35.600527
 11
-641.698256
 21
-35.600527
  0
LINE
  8
2
 10
-718.353820
 20
-50.600527
 11
-718.353820
 21
-36.600527
  0
ARC
  8
2
 10
-715.353820
 20
-50.600527
 40
3.000000
 50
180.000000
 51
270.000000
  0
LINE
  8
2
 10
-691.353820
 20
-56.600527
 11
-691.353820
 21
-59.600527
  0
LINE
  8
2
 10
-551.353820
 20
-56.600527
 11
-551.353820
 21
-59.600527
  0
LINE
  8
2
 10
-483.661984
 20
-53.600527
 11
-482.353820
 21
-53.600527
  0
ARC
  8
2
 10
-719.353820
 20
-36.600527
 40
1.000000
 50
0.000000
 51
90.000000
  0
ARC
  8
2
 10
-811.404831
 20
-10.600527
 40
25.000000
 50
198.428986
 51
270.000000
  0
ARC
  8
2
 10
-817.010376
 20
65.250465
 40
25.000000
 50
94.000000
 51
170.024200
  0
LINE
  8
2
 10
-758.533968
 20
128.399473
 11
-766.789517
 21
105.717538
  0
ARC
  8
2
 10
-785.583370
 20
112.557941
 40
20.000000
 50
274.000000
 51
340.000000
  0
LINE
  8
2
 10
-510.353820
 20
138.399473
 11
-510.353820
 21
137.615147
  0
ARC
  8
2
 10
-515.353820
 20
138.399473
 40
5.000000
 50
360.000000
 51
17.857343
  0
ARC
  8
2
 10
-771.353820
 20
23.399473
 40
45.000000
 50
96.908613
 51
270.000000
  0
ARC
  8
2
 10
-817.010376
 20
65.250465
 40
21.000000
 50
94.000000
 51
170.024200
  0
ARC
  8
2
 10
-811.404831
 20
-10.600527
 40
21.000000
 50
198.428986
 51
270.000000
  0
ARC
  8
2
 10
-771.353820
 20
23.399473
 40
53.842323
 50
95.267350
 51
271.641263
  0
LINE
  8
2
 10
-712.853820
 20
88.399473
 11
-712.853820
 21
90.787536
  0
LINE
  8
2
 10
-729.853820
 20
88.399473
 11
-729.853820
 21
89.179219
  0
ARC
  8
2
 10
-721.353820
 20
88.399473
 40
8.500000
 50
180.000000
 51
360.000000
  0
LINE
  8
2
 10
-818.475262
 20
86.199310
 11
-733.063089
 21
92.171911
  0
ARC
  8
2
 10
-709.853820
 20
90.787536
 40
3.000000
 50
94.000000
 51
180.000000
  0
ARC
  8
2
 10
-732.853820
 20
89.179219
 40
3.000000
 50
0.000000
 51
94.000000
  0
LINE
  8
2
 10
-776.296715
 20
77.014429
 11
-726.465788
 21
81.608465
  0
LINE
  8
2
 10
-769.811693
 20
-30.420762
 11
-708.854723
 21
-28.674144
  0
LINE
  8
2
 10
-708.853820
 20
-27.600527
 11
-708.853820
 21
-28.600527
  0
LINE
  8
2
 10
-691.853820
 20
-27.600527
 11
-691.853820
 21
-28.600527
  0
ARC
  8
2
 10
-700.353820
 20
-27.600527
 40
8.500000
 50
0.000000
 51
180.000000
  0
LINE
  8
2
 10
-771.353820
 20
-21.600527
 11
-706.374617
 21
-21.600527
  0
LINE
  8
2
 10
-811.404831
 20
-31.600527
 11
-711.853820
 21
-31.600527
  0
ARC
  8
2
 10
-688.853820
 20
-28.600527
 40
3.000000
 50
180.000000
 51
270.000000
  0
ARC
  8
2
 10
-711.853820
 20
-28.600527
 40
3.000000
 50
270.000000
 51
0.000000
  0
ARC
  8
2
 10
-694.353820
 20
-56.600527
 40
3.000000
 50
0.000000
 51
90.000000
  0
ARC
  8
2
 10
-482.353820
 20
-50.600527
 40
3.000000
 50
270.000000
 51
360.000000
  0
LINE
  8
2
 10
-494.353820
 20
-44.600527
 11
-479.853820
 21
-44.600527
  0
LINE
  8
2
 10
-494.853820
 20
-45.100527
 11
-494.853820
 21
-52.600527
  0
ARC
  8
2
 10
-495.853820
 20
-52.600527
 40
1.000000
 50
270.000000
 51
360.000000
  0
ARC
  8
2
 10
-479.853820
 20
-44.100527
 40
0.500000
 50
270.000000
 51
360.000000
  0
ARC
  8
2
 10
-494.353820
 20
-45.100527
 40
0.500000
 50
90.000000
 51
180.000000
  0
LINE
  8
2
 10
-493.853820
 20
-44.600527
 11
-493.853820
 21
-52.100527
  0
LINE
  8
2
 10
-493.853820
 20
-52.100527
 11
-492.987794
 21
-52.600527
  0
LINE
  8
2
 10
-480.853820
 20
-44.600527
 11
-480.853820
 21
-52.100527
  0
LINE
  8
2
 10
-480.853820
 20
-52.100527
 11
-481.719845
 21
-52.600527
  0
LINE
  8
2
 10
-481.719845
 20
-52.600527
 11
-492.987794
 21
-52.600527
  0
LINE
  8
2
 10
-493.853820
 20
-52.100527
 11
-480.853820
 21
-52.100527
  0
LINE
  8
2
 10
-564.853820
 20
-52.100527
 11
-565.719845
 21
-52.600527
  0
LINE
  8
2
 10
-573.864798
 20
-52.600527
 11
-565.719845
 21
-52.600527
  0
LINE
  8
2
 10
-564.853820
 20
-52.100527
 11
-573.483630
 21
-52.100527
  0
CIRCLE
  8
2
 10
-721.353820
 20
88.399473
 40
7.250000
  0
CIRCLE
  8
2
 10
-721.353820
 20
88.399473
 40
7.000000
  0
LINE
  8
2
 10
-722.053820
 20
92.299473
 11
-720.653820
 21
92.299473
  0
LINE
  8
2
 10
-722.053820
 20
84.499473
 11
-720.653820
 21
84.499473
  0
LINE
  8
2
 10
-725.253820
 20
89.099473
 11
-725.253820
 21
87.699473
  0
LINE
  8
2
 10
-717.453820
 20
89.099473
 11
-717.453820
 21
87.699473
  0
LINE
  8
2
 10
-725.253820
 20
89.099473
 11
-723.053820
 21
89.099473
  0
LINE
  8
2
 10
-719.653820
 20
89.099473
 11
-717.453820
 21
89.099473
  0
LINE
  8
2
 10
-720.653820
 20
84.499473
 11
-720.653820
 21
86.699473
  0
LINE
  8
2
 10
-720.653820
 20
90.099473
 11
-720.653820
 21
92.299473
  0
LINE
  8
2
 10
-725.253820
 20
87.699473
 11
-723.053820
 21
87.699473
  0
LINE
  8
2
 10
-719.653820
 20
87.699473
 11
-717.453820
 21
87.699473
  0
LINE
  8
2
 10
-722.053820
 20
84.499473
 11
-722.053820
 21
86.699473
  0
LINE
  8
2
 10
-722.053820
 20
90.099473
 11
-722.053820
 21
92.299473
  0
ARC
  8
2
 10
-719.653820
 20
90.099473
 40
1.000000
 50
180.000000
 51
270.000000
  0
ARC
  8
2
 10
-723.053820
 20
90.099473
 40
1.000000
 50
270.000000
 51
360.000000
  0
ARC
  8
2
 10
-719.653820
 20
86.699473
 40
1.000000
 50
90.000000
 51
180.000000
  0
ARC
  8
2
 10
-723.053820
 20
86.699473
 40
1.000000
 50
360.000000
 51
90.000000
  0
CIRCLE
  8
2
 10
-700.353820
 20
-27.600527
 40
7.250000
  0
CIRCLE
  8
2
 10
-700.353820
 20
-27.600527
 40
7.000000
  0
LINE
  8
2
 10
-701.053820
 20
-23.700527
 11
-699.653820
 21
-23.700527
  0
LINE
  8
2
 10
-701.053820
 20
-31.500527
 11
-699.653820
 21
-31.500527
  0
LINE
  8
2
 10
-704.253820
 20
-26.900527
 11
-704.253820
 21
-28.300527
  0
LINE
  8
2
 10
-696.453820
 20
-26.900527
 11
-696.453820
 21
-28.300527
  0
LINE
  8
2
 10
-704.253820
 20
-26.900527
 11
-702.053820
 21
-26.900527
  0
LINE
  8
2
 10
-698.653820
 20
-26.900527
 11
-696.453820
 21
-26.900527
  0
LINE
  8
2
 10
-699.653820
 20
-31.500527
 11
-699.653820
 21
-29.300527
  0
LINE
  8
2
 10
-699.653820
 20
-25.900527
 11
-699.653820
 21
-23.700527
  0
LINE
  8
2
 10
-704.253820
 20
-28.300527
 11
-702.053820
 21
-28.300527
  0
LINE
  8
2
 10
-698.653820
 20
-28.300527
 11
-696.453820
 21
-28.300527
  0
LINE
  8
2
 10
-701.053820
 20
-31.500527
 11
-701.053820
 21
-29.300527
  0
LINE
  8
2
 10
-701.053820
 20
-25.900527
 11
-701.053820
 21
-23.700527
  0
ARC
  8
2
 10
-698.653820
 20
-25.900527
 40
1.000000
 50
180.000000
 51
270.000000
  0
ARC
  8
2
 10
-702.053820
 20
-25.900527
 40
1.000000
 50
270.000000
 51
360.000000
  0
ARC
  8
2
 10
-698.653820
 20
-29.300527
 40
1.000000
 50
90.000000
 51
180.000000
  0
ARC
  8
2
 10
-702.053820
 20
-29.300527
 40
1.000000
 50
360.000000
 51
90.000000
  0
LINE
  8
2
 10
-758.853820
 20
40.899473
 11
-758.853820
 21
23.399473
  0
LINE
  8
2
 10
-758.853820
 20
40.899473
 11
-723.853820
 21
40.899473
  0
LINE
  8
2
 10
-758.853820
 20
23.399473
 11
-723.853820
 21
40.899473
  0
LINE
  8
2
 10
-747.187153
 20
40.899473
 11
-747.187153
 21
5.899473
  0
LINE
  8
2
 10
-735.520486
 20
29.232806
 11
-758.853820
 21
29.232806
  0
LINE
  8
2
 10
-735.520486
 20
35.066139
 11
-758.853820
 21
35.066139
  0
LINE
  8
2
 10
-735.520486
 20
40.899473
 11
-758.853820
 21
29.232806
  0
LINE
  8
2
 10
-747.187153
 20
40.899473
 11
-758.853820
 21
35.066139
  0
LINE
  8
2
 10
-735.520486
 20
5.899473
 11
-735.520486
 21
29.232806
  0
LINE
  8
2
 10
-735.520486
 20
35.066139
 11
-735.520486
 21
40.899473
  0
LINE
  8
2
 10
-747.187153
 20
5.899473
 11
-735.520486
 21
5.899473
  0
ARC
  8
2
 10
-499.508028
 20
72.415764
 40
40.000000
 50
10.595365
 51
94.000000
  0
LINE
  8
2
 10
-494.353820
 20
121.399473
 11
-494.353820
 21
112.082300
  0
LINE
  8
2
 10
-577.853820
 20
98.399473
 11
-577.853820
 21
100.227655
  0
LINE
  8
2
 10
-594.853820
 20
98.399473
 11
-594.853820
 21
98.619339
  0
ARC
  8
2
 10
-586.353820
 20
98.399473
 40
8.500000
 50
178.903775
 51
360.000000
  0
CIRCLE
  8
2
 10
-586.353820
 20
98.399473
 40
7.250000
  0
CIRCLE
  8
2
 10
-586.353820
 20
98.399473
 40
7.000000
  0
LINE
  8
2
 10
-587.053820
 20
102.299473
 11
-585.653820
 21
102.299473
  0
LINE
  8
2
 10
-587.053820
 20
94.499473
 11
-585.653820
 21
94.499473
  0
LINE
  8
2
 10
-590.253820
 20
99.099473
 11
-590.253820
 21
97.699473
  0
LINE
  8
2
 10
-582.453820
 20
99.099473
 11
-582.453820
 21
97.699473
  0
LINE
  8
2
 10
-590.253820
 20
99.099473
 11
-588.053820
 21
99.099473
  0
LINE
  8
2
 10
-584.653820
 20
99.099473
 11
-582.453820
 21
99.099473
  0
LINE
  8
2
 10
-585.653820
 20
94.499473
 11
-585.653820
 21
96.699473
  0
LINE
  8
2
 10
-585.653820
 20
100.099473
 11
-585.653820
 21
102.299473
  0
LINE
  8
2
 10
-590.253820
 20
97.699473
 11
-588.053820
 21
97.699473
  0
LINE
  8
2
 10
-584.653820
 20
97.699473
 11
-582.453820
 21
97.699473
  0
LINE
  8
2
 10
-587.053820
 20
94.499473
 11
-587.053820
 21
96.699473
  0
LINE
  8
2
 10
-587.053820
 20
100.099473
 11
-587.053820
 21
102.299473
  0
ARC
  8
2
 10
-584.653820
 20
100.099473
 40
1.000000
 50
180.000000
 51
270.000000
  0
ARC
  8
2
 10
-588.053820
 20
100.099473
 40
1.000000
 50
270.000000
 51
360.000000
  0
ARC
  8
2
 10
-584.653820
 20
96.699473
 40
1.000000
 50
90.000000
 51
180.000000
  0
ARC
  8
2
 10
-588.053820
 20
96.699473
 40
1.000000
 50
360.000000
 51
90.000000
  0
ARC
  8
2
 10
-597.853820
 20
98.619339
 40
3.000000
 50
0.000000
 51
94.000000
  0
ARC
  8
2
 10
-574.853820
 20
100.227655
 40
3.000000
 50
94.000000
 51
180.000000
  0
LINE
  8
2
 10
-594.853820
 20
-27.530740
 11
-594.853820
 21
-28.600527
  0
ARC
  8
2
 10
-586.353820
 20
-27.530740
 40
8.500000
 50
54.524349
 51
180.000000
  0
LINE
  8
2
 10
-587.053820
 20
-23.630740
 11
-585.653820
 21
-23.630740
  0
LINE
  8
2
 10
-590.253820
 20
-26.830740
 11
-590.253820
 21
-28.230740
  0
LINE
  8
2
 10
-590.253820
 20
-26.830740
 11
-588.053820
 21
-26.830740
  0
LINE
  8
2
 10
-585.653820
 20
-25.830740
 11
-585.653820
 21
-23.630740
  0
LINE
  8
2
 10
-590.253820
 20
-28.230740
 11
-588.053820
 21
-28.230740
  0
LINE
  8
2
 10
-587.053820
 20
-25.830740
 11
-587.053820
 21
-23.630740
  0
ARC
  8
2
 10
-584.653820
 20
-25.830740
 40
1.000000
 50
180.000000
 51
217.040288
  0
ARC
  8
2
 10
-588.053820
 20
-25.830740
 40
1.000000
 50
270.000000
 51
360.000000
  0
ARC
  8
2
 10
-588.053820
 20
-29.230740
 40
1.000000
 50
22.136572
 51
90.000000
  0
LINE
  8
2
 10
-557.855752
 20
-31.600527
 11
-487.853820
 21
-31.600527
  0
ARC
  8
2
 10
-597.853820
 20
-28.600527
 40
3.000000
 50
270.000000
 51
0.000000
  0
LINE
  8
2
 10
-550.232397
 20
-21.600527
 11
-522.853820
 21
-21.600527
  0
LINE
  8
2
 10
-552.203059
 20
-24.185560
 11
-522.851002
 21
-23.344527
  0
LINE
  8
2
 10
-581.006508
 20
91.792184
 11
-536.090330
 21
97.234490
  0
LINE
  8
2
 10
-578.457346
 20
95.253729
 11
-536.046168
 21
99.163720
  0
LINE
  8
2
 10
-485.853820
 20
94.399473
 11
-485.853820
 21
103.648564
  0
LINE
  8
2
 10
-477.353820
 20
85.899473
 11
-467.944003
 21
85.899473
  0
LINE
  8
2
 10
-470.867662
 20
-11.100527
 11
-468.370839
 21
-11.100527
  0
ARC
  8
2
 10
-477.353820
 20
94.399473
 40
8.500000
 50
180.000000
 51
270.000000
  0
ARC
  8
2
 10
-499.508028
 20
72.415764
 40
36.000000
 50
71.164341
 51
94.000000
  0
ARC
  8
2
 10
-488.853820
 20
103.648564
 40
3.000000
 50
0.000000
 51
71.164341
  0
ARC
  8
2
 10
-467.944003
 20
82.899473
 40
3.000000
 50
11.778484
 51
90.000000
  0
ARC
  8
2
 10
-468.370839
 20
-8.100527
 40
3.000000
 50
270.000000
 51
347.684027
  0
CIRCLE
  8
2
 10
-477.353820
 20
94.469260
 40
7.250000
  0
CIRCLE
  8
2
 10
-477.353820
 20
94.469260
 40
7.000000
  0
LINE
  8
2
 10
-478.053820
 20
98.369260
 11
-476.653820
 21
98.369260
  0
LINE
  8
2
 10
-481.253820
 20
95.169260
 11
-481.253820
 21
93.769260
  0
LINE
  8
2
 10
-473.453820
 20
95.169260
 11
-473.453820
 21
93.769260
  0
LINE
  8
2
 10
-481.253820
 20
95.169260
 11
-479.053820
 21
95.169260
  0
LINE
  8
2
 10
-475.653820
 20
95.169260
 11
-473.453820
 21
95.169260
  0
LINE
  8
2
 10
-476.653820
 20
90.569260
 11
-476.653820
 21
92.769260
  0
LINE
  8
2
 10
-476.653820
 20
96.169260
 11
-476.653820
 21
98.369260
  0
LINE
  8
2
 10
-481.253820
 20
93.769260
 11
-479.053820
 21
93.769260
  0
LINE
  8
2
 10
-475.653820
 20
93.769260
 11
-473.453820
 21
93.769260
  0
LINE
  8
2
 10
-478.053820
 20
90.569260
 11
-478.053820
 21
92.769260
  0
LINE
  8
2
 10
-478.053820
 20
96.169260
 11
-478.053820
 21
98.369260
  0
ARC
  8
2
 10
-475.653820
 20
96.169260
 40
1.000000
 50
180.000000
 51
270.000000
  0
ARC
  8
2
 10
-479.053820
 20
96.169260
 40
1.000000
 50
270.000000
 51
360.000000
  0
ARC
  8
2
 10
-475.653820
 20
92.769260
 40
1.000000
 50
90.000000
 51
180.000000
  0
ARC
  8
2
 10
-479.053820
 20
92.769260
 40
1.000000
 50
360.000000
 51
90.000000
  0
LINE
  8
2
 10
-478.053820
 20
90.499473
 11
-476.653820
 21
90.499473
  0
LINE
  8
2
 10
-479.353820
 20
-42.747938
 11
-479.353820
 21
-50.600527
  0
ARC
  8
2
 10
-548.353820
 20
-56.600527
 40
3.000000
 50
90.000000
 51
180.000000
  0
LINE
  8
2
 10
-567.766114
 20
-44.600527
 11
-564.353820
 21
-44.600527
  0
LINE
  8
2
 10
-564.853820
 20
-44.600527
 11
-564.853820
 21
-52.100527
  0
LINE
  8
2
 10
-563.853820
 20
-45.100527
 11
-563.853820
 21
-52.600527
  0
ARC
  8
2
 10
-562.853820
 20
-52.600527
 40
1.000000
 50
180.000000
 51
270.000000
  0
ARC
  8
2
 10
-564.353820
 20
-45.100527
 40
0.500000
 50
0.000000
 51
90.000000
  0
LINE
  8
2
 10
-703.353820
 20
-44.600527
 11
-717.853820
 21
-44.600527
  0
LINE
  8
2
 10
-702.853820
 20
-45.100527
 11
-702.853820
 21
-52.600527
  0
ARC
  8
2
 10
-701.853820
 20
-52.600527
 40
1.000000
 50
180.000000
 51
270.000000
  0
ARC
  8
2
 10
-717.853820
 20
-44.100527
 40
0.500000
 50
180.000000
 51
270.000000
  0
ARC
  8
2
 10
-703.353820
 20
-45.100527
 40
0.500000
 50
0.000000
 51
90.000000
  0
LINE
  8
2
 10
-703.853820
 20
-44.600527
 11
-703.853820
 21
-52.100527
  0
LINE
  8
2
 10
-703.853820
 20
-52.100527
 11
-704.719845
 21
-52.600527
  0
LINE
  8
2
 10
-716.853820
 20
-44.600527
 11
-716.853820
 21
-52.100527
  0
LINE
  8
2
 10
-716.853820
 20
-52.100527
 11
-715.987794
 21
-52.600527
  0
LINE
  8
2
 10
-715.987794
 20
-52.600527
 11
-704.719845
 21
-52.600527
  0
LINE
  8
2
 10
-703.853820
 20
-52.100527
 11
-716.853820
 21
-52.100527
  0
LINE
  8
2
 10
-494.353820
 20
121.399473
 11
-496.249004
 21
121.399473
  0
LINE
  8
2
 10
-496.353820
 20
123.399473
 11
-495.769009
 21
112.240627
  0
LINE
  8
2
  6
CENTER
 62
2
 10
-522.853820
 20
196.599473
 11
-522.853820
 21
-123.850527
  0
LINE
  8
2
  6
CENTER
 62
2
 10
-731.169930
 20
88.399473
 11
-710.897958
 21
88.399473
  0
LINE
  8
2
  6
CENTER
 62
2
 10
-721.353820
 20
100.332381
 11
-721.353820
 21
76.606139
  0
LINE
  8
2
  6
CENTER
 62
2
 10
-847.893502
 20
24.399473
 11
-823.266854
 21
24.399473
  0
LINE
  8
2
  6
CENTER
 62
2
 10
-700.353820
 20
-14.031022
 11
-700.353820
 21
-41.972642
  0
LINE
  8
2
  6
CENTER
 62
2
 10
-711.973244
 20
-27.600527
 11
-687.346566
 21
-27.600527
  0
LINE
  8
2
  6
CENTER
 62
2
 10
-487.353820
 20
-33.916582
 11
-487.353820
 21
-58.135698
  0
LINE
  8
2
  6
CENTER
 62
2
 10
-571.353820
 20
-35.600527
 11
-571.353820
 21
-58.135698
  0
LINE
  8
2
  6
CENTER
 62
2
 10
-586.353820
 20
110.332381
 11
-586.353820
 21
86.606139
  0
LINE
  8
2
  6
CENTER
 62
2
 10
-596.169930
 20
98.399473
 11
-575.897958
 21
98.399473
  0
LINE
  8
2
  6
CENTER
 62
2
 10
-477.353820
 20
106.332381
 11
-477.353820
 21
82.606139
  0
LINE
  8
2
  6
CENTER
 62
2
 10
-487.169930
 20
94.399473
 11
-466.897958
 21
94.399473
  0
LINE
  8
2
  6
CENTER
 62
2
 10
-586.353820
 20
-15.667619
 11
-586.353820
 21
-39.393861
  0
LINE
  8
2
  6
CENTER
 62
2
 10
-596.169930
 20
-27.600527
 11
-575.897958
 21
-27.600527
  0
LINE
  8
2
  6
CENTER
 62
2
 10
-710.353820
 20
-33.916582
 11
-710.353820
 21
-58.135698
  0
LINE
  8
2
 10
-760.353820
 20
123.399473
 11
-634.096797
 21
123.399473
  0
LINE
  8
2
 10
-598.820918
 20
123.399473
 11
-535.491393
 21
123.399473
  0
LINE
  8
2
 10
-510.216246
 20
123.399473
 11
-496.353820
 21
123.399473
  0
LINE
  8
2
 10
-509.950341
 20
111.783242
 11
-502.298287
 21
112.318326
  0
LINE
  8
2
 10
-575.063089
 20
103.220347
 11
-535.890606
 21
105.959554
  0
LINE
  8
2
 10
-509.858701
 20
107.779882
 11
-502.019261
 21
108.328069
  0
LINE
  8
2
 10
-694.333022
 20
-21.600527
 11
-649.344926
 21
-21.600527
  0
LINE
  8
2
 10
-619.786786
 20
-21.600527
 11
-592.443366
 21
-21.600527
  0
LINE
  8
2
 10
-691.853820
 20
-28.187013
 11
-646.695981
 21
-26.893092
  0
LINE
  8
2
 10
-616.894553
 20
-26.039184
 11
-594.582390
 21
-25.399867
  0
LINE
  8
2
 10
-688.853820
 20
-31.600527
 11
-644.097376
 21
-31.600527
  0
LINE
  8
2
 10
-612.831595
 20
-31.600527
 11
-597.853820
 21
-31.600527
  0
LINE
  8
2
 10
-718.353820
 20
-37.600527
 11
-640.429327
 21
-37.600527
  0
LINE
  8
2
 10
-776.766693
 20
68.072740
 11
-655.643673
 21
82.748711
  0
LINE
  8
2
 10
-624.165370
 20
86.562805
 11
-589.968405
 21
90.706309
  0
LINE
  8
2
 10
-715.086410
 20
82.657558
 11
-653.650583
 21
88.321479
  0
LINE
  8
2
 10
-623.962822
 20
91.058467
 11
-593.542054
 21
93.863033
  0
LINE
  8
2
 10
-710.063089
 20
93.780228
 11
-649.527384
 21
98.013297
  0
LINE
  8
2
 10
-618.667438
 20
100.171234
 11
-598.063089
 21
101.612031
  0
LINE
  8
2
 10
-818.754288
 20
90.189566
 11
-647.488803
 21
102.165616
  0
LINE
  8
2
 10
-615.819119
 20
104.380176
 11
-535.798673
 21
109.975750
  0
ARC
  8
2
 10
-681.353820
 20
38.399473
 40
225.000000
 50
346.959424
 51
1.987867
  0
ARC
  8
2
 10
-681.353820
 20
38.399473
 40
225.000000
 50
8.785233
 51
10.595365
  0
ARC
  8
2
 10
-681.353820
 20
38.399473
 40
221.000000
 50
347.684027
 51
1.663871
  0
ARC
  8
2
 10
-681.353820
 20
38.399473
 40
221.000000
 50
8.641381
 51
11.778484
  0
ARC
  8
2
 10
-522.853820
 20
38.399473
 40
60.000000
 50
30.752222
 51
77.248167
  0
ARC
  8
2
 10
-522.853820
 20
38.399473
 40
60.000000
 50
270.000000
 51
293.233907
  0
ARC
  8
2
 10
-522.853820
 20
38.399473
 40
60.000000
 50
318.747227
 51
5.244996
  0
ARC
  8
2
 10
-522.853820
 20
38.399473
 40
61.744000
 50
270.002615
 51
293.639622
  0
ARC
  8
2
 10
-491.382769
 20
-5.600527
 40
30.000000
 50
270.000000
 51
281.736092
  0
ARC
  8
2
 10
-491.382769
 20
-5.600527
 40
30.000000
 50
331.943411
 51
346.959424
  0
LINE
  8
2
 10
-609.571753
 20
-35.600527
 11
-591.797018
 21
-35.600527
  0
LINE
  8
2
 10
-560.905094
 20
-35.600527
 11
-491.382769
 21
-35.600527
  0
LINE
  8
2
 10
-607.824403
 20
-37.600527
 11
-593.181266
 21
-37.600527
  0
LINE
  8
2
 10
-562.429765
 20
-37.600527
 11
-483.277874
 21
-37.600527
  0
ARC
  8
2
 10
-586.353820
 20
-27.530740
 40
7.000000
 50
54.355562
 51
236.268354
  0
ARC
  8
2
 10
-586.353820
 20
-27.530740
 40
7.250000
 50
54.388544
 51
236.235372
  0
LINE
  8
2
 10
-660.353820
 20
-53.600527
 11
-628.381067
 21
-53.600527
  0
LINE
  8
2
 10
-574.627134
 20
-53.600527
 11
-482.353820
 21
-53.600527
  0
LINE
  8
2
 10
-691.353820
 20
-59.600527
 11
-622.833818
 21
-59.600527
  0
LINE
  8
2
 10
-576.632595
 20
-59.600527
 11
-551.353820
 21
-59.600527
  0
LINE
  8
2
 10
-715.353820
 20
-53.600527
 11
-628.381067
 21
-53.600527
  0
LINE
  8
2
 10
-574.627134
 20
-53.600527
 11
-482.353820
 21
-53.600527
  0
CIRCLE
  8
2
 10
-522.853820
 20
38.469260
 40
7.250000
  0
CIRCLE
  8
2
 10
-522.853820
 20
38.469260
 40
7.000000
  0
LINE
  8
2
 10
-523.553820
 20
42.369260
 11
-522.153820
 21
42.369260
  0
LINE
  8
2
 10
-526.753820
 20
39.169260
 11
-526.753820
 21
37.769260
  0
LINE
  8
2
 10
-518.953820
 20
39.169260
 11
-518.953820
 21
37.769260
  0
LINE
  8
2
 10
-526.753820
 20
39.169260
 11
-524.553820
 21
39.169260
  0
LINE
  8
2
 10
-521.153820
 20
39.169260
 11
-518.953820
 21
39.169260
  0
LINE
  8
2
 10
-522.153820
 20
34.569260
 11
-522.153820
 21
36.769260
  0
LINE
  8
2
 10
-522.153820
 20
40.169260
 11
-522.153820
 21
42.369260
  0
LINE
  8
2
 10
-526.753820
 20
37.769260
 11
-524.553820
 21
37.769260
  0
LINE
  8
2
 10
-521.153820
 20
37.769260
 11
-518.953820
 21
37.769260
  0
LINE
  8
2
 10
-523.553820
 20
34.569260
 11
-523.553820
 21
36.769260
  0
LINE
  8
2
 10
-523.553820
 20
40.169260
 11
-523.553820
 21
42.369260
  0
ARC
  8
2
 10
-521.153820
 20
40.169260
 40
1.000000
 50
180.000000
 51
270.000000
  0
ARC
  8
2
 10
-524.553820
 20
40.169260
 40
1.000000
 50
270.000000
 51
360.000000
  0
ARC
  8
2
 10
-521.153820
 20
36.769260
 40
1.000000
 50
90.000000
 51
180.000000
  0
ARC
  8
2
 10
-524.553820
 20
36.769260
 40
1.000000
 50
360.000000
 51
90.000000
  0
LINE
  8
2
 10
-523.553820
 20
34.499473
 11
-522.153820
 21
34.499473
  0
ARC
  8
2
 10
-522.853820
 20
38.399473
 40
61.744000
 50
318.342304
 51
5.650502
  0
ARC
  8
2
 10
-522.853820
 20
38.399473
 40
61.744000
 50
30.346948
 51
77.653208
  0
ARC
  8
2
 10
-664.353820
 20
38.399473
 40
180.000000
 50
170.024200
 51
198.428986
  0
ARC
  8
2
 10
-664.353820
 20
38.399473
 40
176.000000
 50
170.024200
 51
180.828003
  0
ARC
  8
2
 10
-664.353820
 20
38.399473
 40
176.000000
 50
188.476216
 51
198.428986
  0
ARC
  8
2
 10
-835.353820
 20
24.399473
 40
8.500000
 50
270.000000
 51
90.000000
  0
LINE
  8
2
 10
-835.353820
 20
32.899473
 11
-837.335755
 21
32.899473
  0
LINE
  8
2
 10
-835.353820
 20
15.899473
 11
-835.464164
 21
15.899473
  0
ARC
  8
2
 10
-837.335755
 20
35.899473
 40
3.000000
 50
180.828003
 51
270.000000
  0
ARC
  8
2
 10
-835.464164
 20
12.899473
 40
3.000000
 50
90.000000
 51
188.476216
  0
CIRCLE
  8
2
 10
-835.353820
 20
24.399473
 40
7.250000
  0
CIRCLE
  8
2
 10
-835.353820
 20
24.399473
 40
7.000000
  0
LINE
  8
2
 10
-836.053820
 20
28.299473
 11
-834.653820
 21
28.299473
  0
LINE
  8
2
 10
-836.053820
 20
20.499473
 11
-834.653820
 21
20.499473
  0
LINE
  8
2
 10
-839.253820
 20
25.099473
 11
-839.253820
 21
23.699473
  0
LINE
  8
2
 10
-831.453820
 20
25.099473
 11
-831.453820
 21
23.699473
  0
LINE
  8
2
 10
-839.253820
 20
25.099473
 11
-837.053820
 21
25.099473
  0
LINE
  8
2
 10
-833.653820
 20
25.099473
 11
-831.453820
 21
25.099473
  0
LINE
  8
2
 10
-834.653820
 20
20.499473
 11
-834.653820
 21
22.699473
  0
LINE
  8
2
 10
-834.653820
 20
26.099473
 11
-834.653820
 21
28.299473
  0
LINE
  8
2
 10
-839.253820
 20
23.699473
 11
-837.053820
 21
23.699473
  0
LINE
  8
2
 10
-833.653820
 20
23.699473
 11
-831.453820
 21
23.699473
  0
LINE
  8
2
 10
-836.053820
 20
20.499473
 11
-836.053820
 21
22.699473
  0
LINE
  8
2
 10
-836.053820
 20
26.099473
 11
-836.053820
 21
28.299473
  0
ARC
  8
2
 10
-833.653820
 20
26.099473
 40
1.000000
 50
180.000000
 51
270.000000
  0
ARC
  8
2
 10
-837.053820
 20
26.099473
 40
1.000000
 50
270.000000
 51
360.000000
  0
ARC
  8
2
 10
-833.653820
 20
22.699473
 40
1.000000
 50
90.000000
 51
180.000000
  0
ARC
  8
2
 10
-837.053820
 20
22.699473
 40
1.000000
 50
360.000000
 51
90.000000
  0
LINE
  8
2
  6
CENTER
 62
2
 10
-861.586373
 20
38.399473
 11
-361.103820
 21
38.399473
  0
LINE
  8
2
  6
CENTER
 62
2
 10
-835.353820
 20
36.169234
 11
-835.353820
 21
11.069075
  0
ARC
  8
2
 10
-89.143611
 20
132.999473
 40
6.850000
 50
147.755555
 51
204.511111
  0
LINE
  8
2
  6
CENTER
 62
2
 10
-106.993611
 20
186.299473
 11
-106.993611
 21
-109.350527
  0
ARC
  8
2
 10
-106.993611
 20
165.399473
 40
13.000000
 50
7.511111
 51
180.000000
  0
ARC
  8
2
 10
-106.993611
 20
-88.600527
 40
13.000000
 50
180.000000
 51
352.488889
  0
LINE
  8
2
 10
-93.993611
 20
159.949473
 11
-93.993611
 21
154.899473
  0
LINE
  8
2
 10
-93.993611
 20
145.149473
 11
-93.993611
 21
139.699473
  0
LINE
  8
2
 10
-93.993611
 20
126.699473
 11
-93.993611
 21
120.549473
  0
LINE
  8
2
 10
-93.993611
 20
105.799473
 11
-93.993611
 21
98.399473
  0
LINE
  8
2
 10
-93.993611
 20
82.849473
 11
-93.993611
 21
73.249473
  0
LINE
  8
2
 10
-93.993611
 20
63.399473
 11
-93.993611
 21
13.399473
  0
ARC
  8
2
 10
-113.993611
 20
23.249473
 40
20.000000
 50
340.322222
 51
360.000000
  0
LINE
  8
2
 10
-93.993611
 20
4.099473
 11
-93.993611
 21
-6.050527
  0
LINE
  8
2
 10
-93.993611
 20
-21.600527
 11
-93.993611
 21
-29.000527
  0
LINE
  8
2
 10
-93.993611
 20
-43.750527
 11
-93.993611
 21
-49.900527
  0
LINE
  8
2
 10
-93.993611
 20
-62.950527
 11
-93.993611
 21
-68.350527
  0
LINE
  8
2
 10
-93.993611
 20
-78.100527
 11
-93.993611
 21
-83.150527
  0
LINE
  8
2
 10
-119.993611
 20
165.399473
 11
-119.993611
 21
-88.600527
  0
ARC
  8
2
 10
-104.843611
 20
63.749473
 40
36.200000
 50
273.244444
 51
284.611111
  0
ARC
  8
2
 10
-104.843611
 20
13.049473
 40
36.200000
 50
75.600000
 51
86.755555
  0
ARC
  8
2
 10
-102.793611
 20
46.199473
 40
3.000000
 50
86.455555
 51
162.166666
  0
ARC
  8
2
 10
-96.443611
 20
45.699473
 40
2.500000
 50
328.177778
 51
75.566666
  0
ARC
  8
2
 10
-78.543611
 20
38.399473
 40
28.450000
 50
162.166666
 51
197.833333
  0
ARC
  8
2
 10
-102.793611
 20
30.599473
 40
3.000000
 50
197.833333
 51
273.544444
  0
ARC
  8
2
 10
-96.443611
 20
31.099473
 40
2.500000
 50
284.433333
 51
31.822222
  0
ARC
  8
2
 10
-84.243611
 20
38.399473
 40
11.750000
 50
149.255555
 51
210.744444
  0
ARC
  8
2
 10
-101.393611
 20
35.149473
 40
22.150000
 50
76.688889
 51
93.644444
  0
ARC
  8
2
 10
-96.993611
 20
53.799473
 40
3.000000
 50
360.000000
 51
76.722222
  0
ARC
  8
2
 10
-102.943611
 20
51.449473
 40
25.850000
 50
75.322222
 51
89.877778
  0
ARC
  8
2
 10
-97.243611
 20
73.249473
 40
3.300000
 50
331.966667
 51
75.344444
  0
ARC
  8
2
 10
-81.843611
 20
65.049473
 40
14.150000
 50
151.966666
 51
199.677777
  0
ARC
  8
2
 10
-113.993611
 20
53.549473
 40
20.000000
 50
360.000000
 51
19.677778
  0
ARC
  8
2
 10
-79.843611
 20
67.099473
 40
27.150000
 50
162.655555
 51
196.477777
  0
ARC
  8
2
 10
-102.993611
 20
60.249473
 40
3.000000
 50
196.477777
 51
273.644444
  0
ARC
  8
2
 10
-102.893611
 20
74.299473
 40
3.000000
 50
89.877778
 51
162.655555
  0
ARC
  8
2
 10
-103.343611
 20
85.899473
 40
17.900000
 50
68.988889
 51
88.466666
  0
ARC
  8
2
 10
-98.543611
 20
98.399473
 40
4.500000
 50
332.533333
 51
68.988889
  0
ARC
  8
2
 10
-102.293611
 20
70.749473
 40
14.700000
 50
63.111111
 51
92.422222
  0
ARC
  8
2
 10
-96.993611
 20
81.199473
 40
3.000000
 50
360.000000
 51
63.111111
  0
ARC
  8
2
 10
-83.343611
 20
90.499473
 40
12.650000
 50
152.533333
 51
209.300000
  0
ARC
  8
2
 10
-96.993611
 20
82.849473
 40
3.000000
 50
360.000000
 51
29.266667
  0
ARC
  8
2
 10
-84.493611
 20
94.449473
 40
22.500000
 50
161.011111
 51
197.922222
  0
ARC
  8
2
 10
-103.043611
 20
88.449473
 40
3.000000
 50
197.922222
 51
272.422222
  0
ARC
  8
2
 10
-102.943611
 20
100.799473
 40
3.000000
 50
88.466666
 51
161.011111
  0
ARC
  8
2
 10
-104.543611
 20
113.999473
 40
14.050000
 50
54.633333
 51
80.566666
  0
ARC
  8
2
 10
-99.893611
 20
120.549473
 40
6.000000
 50
328.900000
 51
54.633333
  0
ARC
  8
2
 10
-105.293611
 20
91.049473
 40
19.750000
 50
60.255555
 51
84.200000
  0
ARC
  8
2
 10
-96.993611
 20
105.599473
 40
3.000000
 50
360.000000
 51
60.300000
  0
ARC
  8
2
 10
-87.293611
 20
112.949473
 40
8.700000
 50
148.900000
 51
211.433333
  0
ARC
  8
2
 10
-98.993611
 20
105.799473
 40
5.000000
 50
360.000000
 51
31.433333
  0
ARC
  8
2
 10
-89.143611
 20
118.999473
 40
17.850000
 50
156.544444
 51
200.944444
  0
ARC
  8
2
 10
-102.993611
 20
113.699473
 40
3.000000
 50
200.944444
 51
264.200000
  0
ARC
  8
2
 10
-102.743611
 20
124.899473
 40
3.000000
 50
80.622222
 51
156.544444
  0
ARC
  8
2
 10
-105.943611
 20
132.049473
 40
15.650000
 50
51.611111
 51
78.155555
  0
ARC
  8
2
 10
-99.843611
 20
139.749473
 40
5.800000
 50
327.755555
 51
51.611111
  0
ARC
  8
2
 10
-106.993611
 20
115.399473
 40
18.850000
 50
54.711111
 51
79.722222
  0
ARC
  8
2
 10
-98.993611
 20
126.699473
 40
5.000000
 50
360.000000
 51
54.700000
  0
ARC
  8
2
 10
-94.493611
 20
140.949473
 40
12.500000
 50
158.422222
 51
205.222222
  0
ARC
  8
2
 10
-103.343611
 20
144.449473
 40
3.000000
 50
78.155555
 51
158.422222
  0
ARC
  8
2
 10
-103.093611
 20
136.899473
 40
3.000000
 50
205.222222
 51
259.722222
  0
ARC
  8
2
 10
-105.493611
 20
148.649473
 40
14.350000
 50
48.655555
 51
79.833333
  0
ARC
  8
2
 10
-99.993611
 20
154.899473
 40
6.000000
 50
324.855555
 51
48.655555
  0
ARC
  8
2
 10
-104.443611
 20
138.749473
 40
13.400000
 50
49.588889
 51
86.322222
  0
ARC
  8
2
 10
-98.993611
 20
145.149473
 40
5.000000
 50
360.000000
 51
49.588889
  0
ARC
  8
2
 10
-91.043611
 20
148.599473
 40
4.950000
 50
144.855555
 51
173.600000
  0
ARC
  8
2
 10
-98.693611
 20
157.549473
 40
8.300000
 50
154.888889
 51
207.533333
  0
ARC
  8
2
 10
-103.493611
 20
159.799473
 40
3.000000
 50
79.833333
 51
154.888889
  0
ARC
  8
2
 10
-103.393611
 20
155.099473
 40
3.000000
 50
207.533333
 51
266.322222
  0
ARC
  8
2
 10
-104.393611
 20
160.499473
 40
12.450000
 50
35.222222
 51
92.822222
  0
ARC
  8
2
 10
-95.043611
 20
167.099473
 40
1.000000
 50
306.322222
 51
35.222222
  0
ARC
  8
2
 10
-104.493611
 20
154.549473
 40
12.700000
 50
44.477778
 51
92.177778
  0
ARC
  8
2
 10
-98.993611
 20
159.949473
 40
5.000000
 50
360.000000
 51
44.477778
  0
ARC
  8
2
 10
-103.993611
 20
170.099473
 40
3.000000
 50
109.766666
 51
251.222222
  0
ARC
  8
2
 10
-91.293611
 20
161.999473
 40
5.300000
 50
126.222222
 51
156.588889
  0
ARC
  8
2
 10
-101.393611
 20
41.649473
 40
22.150000
 50
266.355555
 51
283.311111
  0
ARC
  8
2
 10
-96.993611
 20
22.999473
 40
3.000000
 50
283.277778
 51
360.000000
  0
ARC
  8
2
 10
-102.943611
 20
25.349473
 40
25.850000
 50
270.122222
 51
284.677778
  0
ARC
  8
2
 10
-97.243611
 20
3.549473
 40
3.300000
 50
284.655556
 51
28.033333
  0
ARC
  8
2
 10
-81.843611
 20
11.749473
 40
14.150000
 50
160.322222
 51
208.033333
  0
ARC
  8
2
 10
-79.843611
 20
9.699473
 40
27.150000
 50
163.522222
 51
197.344444
  0
ARC
  8
2
 10
-102.993611
 20
16.549473
 40
3.000000
 50
86.355555
 51
163.522222
  0
ARC
  8
2
 10
-102.893611
 20
2.499473
 40
3.000000
 50
197.344444
 51
270.122222
  0
ARC
  8
2
 10
-103.343611
 20
-9.100527
 40
17.900000
 50
271.533333
 51
291.011111
  0
ARC
  8
2
 10
-98.543611
 20
-21.600527
 40
4.500000
 50
291.011111
 51
27.466667
  0
ARC
  8
2
 10
-102.293611
 20
6.049473
 40
14.700000
 50
267.577777
 51
296.888889
  0
ARC
  8
2
 10
-96.993611
 20
-4.400527
 40
3.000000
 50
296.888889
 51
360.000000
  0
ARC
  8
2
 10
-83.343611
 20
-13.700527
 40
12.650000
 50
150.700000
 51
207.466666
  0
ARC
  8
2
 10
-96.993611
 20
-6.050527
 40
3.000000
 50
330.733333
 51
360.000000
  0
ARC
  8
2
 10
-84.493611
 20
-17.650527
 40
22.500000
 50
162.077777
 51
198.988889
  0
ARC
  8
2
 10
-103.043611
 20
-11.650527
 40
3.000000
 50
87.577778
 51
162.077777
  0
ARC
  8
2
 10
-102.943611
 20
-24.000527
 40
3.000000
 50
198.988889
 51
271.533333
  0
ARC
  8
2
 10
-104.543611
 20
-37.200527
 40
14.050000
 50
279.433333
 51
305.366667
  0
ARC
  8
2
 10
-99.893611
 20
-43.750527
 40
6.000000
 50
305.366667
 51
31.100000
  0
ARC
  8
2
 10
-105.293611
 20
-14.250527
 40
19.750000
 50
275.800000
 51
299.744444
  0
ARC
  8
2
 10
-96.993611
 20
-28.800527
 40
3.000000
 50
299.700000
 51
360.000000
  0
ARC
  8
2
 10
-87.293611
 20
-36.150527
 40
8.700000
 50
148.566666
 51
211.100000
  0
ARC
  8
2
 10
-98.993611
 20
-29.000527
 40
5.000000
 50
328.566667
 51
360.000000
  0
ARC
  8
2
 10
-89.143611
 20
-42.200527
 40
17.850000
 50
159.055555
 51
203.455555
  0
ARC
  8
2
 10
-102.993611
 20
-36.900527
 40
3.000000
 50
95.800000
 51
159.055555
  0
ARC
  8
2
 10
-102.743611
 20
-48.100527
 40
3.000000
 50
203.455555
 51
279.377778
  0
ARC
  8
2
 10
-105.943611
 20
-55.250527
 40
15.650000
 50
281.844444
 51
308.388889
  0
ARC
  8
2
 10
-106.993611
 20
-38.600527
 40
18.850000
 50
280.277778
 51
305.288889
  0
ARC
  8
2
 10
-98.993611
 20
-49.900527
 40
5.000000
 50
305.300000
 51
360.000000
  0
ARC
  8
2
 10
-89.143611
 20
-56.200527
 40
6.850000
 50
155.488889
 51
212.244444
  0
ARC
  8
2
 10
-99.843611
 20
-62.950527
 40
5.800000
 50
308.388889
 51
32.244444
  0
ARC
  8
2
 10
-94.493611
 20
-64.150527
 40
12.500000
 50
154.777777
 51
201.577777
  0
ARC
  8
2
 10
-103.343611
 20
-67.650527
 40
3.000000
 50
201.577777
 51
281.844444
  0
ARC
  8
2
 10
-103.093611
 20
-60.100527
 40
3.000000
 50
100.277778
 51
154.777777
  0
ARC
  8
2
 10
-105.493611
 20
-71.850527
 40
14.350000
 50
280.166667
 51
311.344444
  0
ARC
  8
2
 10
-99.993611
 20
-78.100527
 40
6.000000
 50
311.344444
 51
35.144444
  0
ARC
  8
2
 10
-104.443611
 20
-61.950527
 40
13.400000
 50
273.677778
 51
310.411111
  0
ARC
  8
2
 10
-98.993611
 20
-68.350527
 40
5.000000
 50
310.411111
 51
360.000000
  0
ARC
  8
2
 10
-91.043611
 20
-71.800527
 40
4.950000
 50
186.400000
 51
215.144444
  0
ARC
  8
2
 10
-98.693611
 20
-80.750527
 40
8.300000
 50
152.466666
 51
205.111111
  0
ARC
  8
2
 10
-103.493611
 20
-83.000527
 40
3.000000
 50
205.111111
 51
280.166667
  0
ARC
  8
2
 10
-103.393611
 20
-78.300527
 40
3.000000
 50
93.677778
 51
152.466666
  0
ARC
  8
2
 10
-104.393611
 20
-83.700527
 40
12.450000
 50
267.177777
 51
324.777778
  0
ARC
  8
2
 10
-95.043611
 20
-90.300527
 40
1.000000
 50
324.777778
 51
53.677778
  0
ARC
  8
2
 10
-104.493611
 20
-77.750527
 40
12.700000
 50
267.822222
 51
315.522222
  0
ARC
  8
2
 10
-98.993611
 20
-83.150527
 40
5.000000
 50
315.522222
 51
360.000000
  0
ARC
  8
2
 10
-103.993611
 20
-93.300527
 40
3.000000
 50
108.777778
 51
250.233333
  0
ARC
  8
2
 10
-91.293611
 20
-85.200527
 40
5.300000
 50
203.411111
 51
233.777777
  0
ARC
  8
2
 10
-106.993611
 20
48.199473
 40
20.000000
 50
49.455555
 51
56.822222
  0
ARC
  8
2
 10
-106.993611
 20
28.599473
 40
20.000000
 50
303.177778
 51
310.544444
  0
LINE
  8
2
 10
-121.993611
 20
18.399473
 11
-121.993611
 21
58.399473
  0
LINE
  8
2
 10
-121.993611
 20
58.399473
 11
-119.993611
 21
58.399473
  0
LINE
  8
2
 10
-121.993611
 20
18.399473
 11
-119.993611
 21
18.399473
  0
LINE
  8
2
 10
-123.993611
 20
46.399473
 11
-123.993611
 21
30.399473
  0
LINE
  8
2
 10
-121.993611
 20
30.699473
 11
-123.993611
 21
30.699473
  0
LINE
  8
2
 10
-123.993611
 20
46.099473
 11
-121.993611
 21
46.099473
  0
LINE
  8
2
 10
-123.993611
 20
30.399473
 11
-126.213155
 21
30.399473
  0
LINE
  8
2
 10
-123.993611
 20
46.399473
 11
-126.213155
 21
46.399473
  0
ARC
  8
2
 10
-116.993611
 20
38.399473
 40
13.000000
 50
146.944269
 51
213.055731
  0
ARC
  8
2
 10
-126.213155
 20
32.399473
 40
2.000000
 50
213.055731
 51
270.000000
  0
ARC
  8
2
 10
-126.213155
 20
44.399473
 40
2.000000
 50
90.000000
 51
146.944269
  0
ARC
  8
2
 10
-412.603820
 20
324.383078
 40
14.350000
 50
10.166667
 51
41.344444
  0
LINE
  8
2
  6
CENTER
 62
2
 10
-670.753820
 20
322.883078
 11
-375.103820
 21
322.883078
  0
ARC
  8
2
 10
-649.853820
 20
322.883078
 40
13.000000
 50
97.511111
 51
270.000000
  0
ARC
  8
2
 10
-395.853820
 20
322.883078
 40
13.000000
 50
270.000000
 51
82.488889
  0
LINE
  8
2
 10
-644.403820
 20
335.883078
 11
-639.353820
 21
335.883078
  0
LINE
  8
2
 10
-629.603820
 20
335.883078
 11
-624.153820
 21
335.883078
  0
LINE
  8
2
 10
-611.153820
 20
335.883078
 11
-605.003820
 21
335.883078
  0
LINE
  8
2
 10
-590.253820
 20
335.883078
 11
-582.853820
 21
335.883078
  0
LINE
  8
2
 10
-567.303820
 20
335.883078
 11
-557.703820
 21
335.883078
  0
LINE
  8
2
 10
-547.853820
 20
335.883078
 11
-497.853820
 21
335.883078
  0
ARC
  8
2
 10
-507.703820
 20
315.883078
 40
20.000000
 50
70.322222
 51
90.000000
  0
LINE
  8
2
 10
-488.553820
 20
335.883078
 11
-478.403820
 21
335.883078
  0
LINE
  8
2
 10
-462.853820
 20
335.883078
 11
-455.453820
 21
335.883078
  0
LINE
  8
2
 10
-440.703820
 20
335.883078
 11
-434.553820
 21
335.883078
  0
LINE
  8
2
 10
-421.503820
 20
335.883078
 11
-416.103820
 21
335.883078
  0
LINE
  8
2
 10
-406.353820
 20
335.883078
 11
-401.303820
 21
335.883078
  0
LINE
  8
2
 10
-649.853820
 20
309.883078
 11
-395.853820
 21
309.883078
  0
ARC
  8
2
 10
-548.203820
 20
325.033078
 40
36.200000
 50
3.244444
 51
14.611111
  0
ARC
  8
2
 10
-497.503820
 20
325.033078
 40
36.200000
 50
165.600000
 51
176.755555
  0
ARC
  8
2
 10
-530.653820
 20
327.083078
 40
3.000000
 50
176.455555
 51
252.166666
  0
ARC
  8
2
 10
-530.153820
 20
333.433078
 40
2.500000
 50
58.177778
 51
165.566666
  0
ARC
  8
2
 10
-522.853820
 20
351.333078
 40
28.450000
 50
252.166666
 51
287.833333
  0
ARC
  8
2
 10
-515.053820
 20
327.083078
 40
3.000000
 50
287.833333
 51
3.544444
  0
ARC
  8
2
 10
-515.553820
 20
333.433078
 40
2.500000
 50
14.433333
 51
121.822222
  0
ARC
  8
2
 10
-522.853820
 20
345.633078
 40
11.750000
 50
239.255555
 51
300.744444
  0
ARC
  8
2
 10
-519.603820
 20
328.483078
 40
22.150000
 50
166.688889
 51
183.644444
  0
ARC
  8
2
 10
-538.253820
 20
332.883078
 40
3.000000
 50
90.000000
 51
166.722222
  0
ARC
  8
2
 10
-535.903820
 20
326.933078
 40
25.850000
 50
165.322222
 51
179.877778
  0
ARC
  8
2
 10
-557.703820
 20
332.633078
 40
3.300000
 50
61.966667
 51
165.344444
  0
ARC
  8
2
 10
-549.503820
 20
348.033078
 40
14.150000
 50
241.966666
 51
289.677777
  0
ARC
  8
2
 10
-538.003820
 20
315.883078
 40
20.000000
 50
90.000000
 51
109.677778
  0
ARC
  8
2
 10
-551.553820
 20
350.033078
 40
27.150000
 50
252.655555
 51
286.477777
  0
ARC
  8
2
 10
-544.703820
 20
326.883078
 40
3.000000
 50
286.477777
 51
3.644444
  0
ARC
  8
2
 10
-558.753820
 20
326.983078
 40
3.000000
 50
179.877778
 51
252.655555
  0
ARC
  8
2
 10
-570.353820
 20
326.533078
 40
17.900000
 50
158.988889
 51
178.466666
  0
ARC
  8
2
 10
-582.853820
 20
331.333078
 40
4.500000
 50
62.533333
 51
158.988889
  0
ARC
  8
2
 10
-555.203820
 20
327.583078
 40
14.700000
 50
153.111111
 51
182.422222
  0
ARC
  8
2
 10
-565.653820
 20
332.883078
 40
3.000000
 50
90.000000
 51
153.111111
  0
ARC
  8
2
 10
-574.953820
 20
346.533078
 40
12.650000
 50
242.533333
 51
299.300000
  0
ARC
  8
2
 10
-567.303820
 20
332.883078
 40
3.000000
 50
90.000000
 51
119.266667
  0
ARC
  8
2
 10
-578.903820
 20
345.383078
 40
22.500000
 50
251.011111
 51
287.922222
  0
ARC
  8
2
 10
-572.903820
 20
326.833078
 40
3.000000
 50
287.922222
 51
2.422222
  0
ARC
  8
2
 10
-585.253820
 20
326.933078
 40
3.000000
 50
178.466666
 51
251.011111
  0
ARC
  8
2
 10
-598.453820
 20
325.333078
 40
14.050000
 50
144.633333
 51
170.566666
  0
ARC
  8
2
 10
-605.003820
 20
329.983078
 40
6.000000
 50
58.900000
 51
144.633333
  0
ARC
  8
2
 10
-575.503820
 20
324.583078
 40
19.750000
 50
150.255555
 51
174.200000
  0
ARC
  8
2
 10
-590.053820
 20
332.883078
 40
3.000000
 50
90.000000
 51
150.300000
  0
ARC
  8
2
 10
-597.403820
 20
342.583078
 40
8.700000
 50
238.900000
 51
301.433333
  0
ARC
  8
2
 10
-590.253820
 20
330.883078
 40
5.000000
 50
90.000000
 51
121.433333
  0
ARC
  8
2
 10
-603.453820
 20
340.733078
 40
17.850000
 50
246.544444
 51
290.944444
  0
ARC
  8
2
 10
-598.153820
 20
326.883078
 40
3.000000
 50
290.944444
 51
354.200000
  0
ARC
  8
2
 10
-609.353820
 20
327.133078
 40
3.000000
 50
170.622222
 51
246.544444
  0
ARC
  8
2
 10
-616.503820
 20
323.933078
 40
15.650000
 50
141.611111
 51
168.155555
  0
ARC
  8
2
 10
-624.203820
 20
330.033078
 40
5.800000
 50
57.755555
 51
141.611111
  0
ARC
  8
2
 10
-599.853820
 20
322.883078
 40
18.850000
 50
144.711111
 51
169.722222
  0
ARC
  8
2
 10
-611.153820
 20
330.883078
 40
5.000000
 50
90.000000
 51
144.700000
  0
ARC
  8
2
 10
-617.453820
 20
340.733078
 40
6.850000
 50
237.755555
 51
294.511111
  0
ARC
  8
2
 10
-625.403820
 20
335.383078
 40
12.500000
 50
248.422222
 51
295.222222
  0
ARC
  8
2
 10
-628.903820
 20
326.533078
 40
3.000000
 50
168.155555
 51
248.422222
  0
ARC
  8
2
 10
-621.353820
 20
326.783078
 40
3.000000
 50
295.222222
 51
349.722222
  0
ARC
  8
2
 10
-633.103820
 20
324.383078
 40
14.350000
 50
138.655555
 51
169.833333
  0
ARC
  8
2
 10
-639.353820
 20
329.883078
 40
6.000000
 50
54.855555
 51
138.655555
  0
ARC
  8
2
 10
-623.203820
 20
325.433078
 40
13.400000
 50
139.588889
 51
176.322222
  0
ARC
  8
2
 10
-629.603820
 20
330.883078
 40
5.000000
 50
90.000000
 51
139.588889
  0
ARC
  8
2
 10
-633.053820
 20
338.833078
 40
4.950000
 50
234.855555
 51
263.600000
  0
ARC
  8
2
 10
-642.003820
 20
331.183078
 40
8.300000
 50
244.888889
 51
297.533333
  0
ARC
  8
2
 10
-644.253820
 20
326.383078
 40
3.000000
 50
169.833333
 51
244.888889
  0
ARC
  8
2
 10
-639.553820
 20
326.483078
 40
3.000000
 50
297.533333
 51
356.322222
  0
ARC
  8
2
 10
-644.953820
 20
325.483078
 40
12.450000
 50
125.222222
 51
182.822222
  0
ARC
  8
2
 10
-651.553820
 20
334.833078
 40
1.000000
 50
36.322222
 51
125.222222
  0
ARC
  8
2
 10
-639.003820
 20
325.383078
 40
12.700000
 50
134.477778
 51
182.177778
  0
ARC
  8
2
 10
-644.403820
 20
330.883078
 40
5.000000
 50
90.000000
 51
134.477778
  0
ARC
  8
2
 10
-654.553820
 20
325.883078
 40
3.000000
 50
199.766666
 51
341.222222
  0
ARC
  8
2
 10
-646.453820
 20
338.583078
 40
5.300000
 50
216.222222
 51
246.588889
  0
ARC
  8
2
 10
-526.103820
 20
328.483078
 40
22.150000
 50
356.355555
 51
13.311111
  0
ARC
  8
2
 10
-507.453820
 20
332.883078
 40
3.000000
 50
13.277778
 51
90.000000
  0
ARC
  8
2
 10
-509.803820
 20
326.933078
 40
25.850000
 50
0.122222
 51
14.677778
  0
ARC
  8
2
 10
-488.003820
 20
332.633078
 40
3.300000
 50
14.655556
 51
118.033333
  0
ARC
  8
2
 10
-496.203820
 20
348.033078
 40
14.150000
 50
250.322222
 51
298.033333
  0
ARC
  8
2
 10
-494.153820
 20
350.033078
 40
27.150000
 50
253.522222
 51
287.344444
  0
ARC
  8
2
 10
-501.003820
 20
326.883078
 40
3.000000
 50
176.355555
 51
253.522222
  0
ARC
  8
2
 10
-486.953820
 20
326.983078
 40
3.000000
 50
287.344444
 51
0.122222
  0
ARC
  8
2
 10
-475.353820
 20
326.533078
 40
17.900000
 50
1.533333
 51
21.011111
  0
ARC
  8
2
 10
-462.853820
 20
331.333078
 40
4.500000
 50
21.011111
 51
117.466667
  0
ARC
  8
2
 10
-490.503820
 20
327.583078
 40
14.700000
 50
357.577777
 51
26.888889
  0
ARC
  8
2
 10
-480.053820
 20
332.883078
 40
3.000000
 50
26.888889
 51
90.000000
  0
ARC
  8
2
 10
-470.753820
 20
346.533078
 40
12.650000
 50
240.700000
 51
297.466666
  0
ARC
  8
2
 10
-478.403820
 20
332.883078
 40
3.000000
 50
60.733333
 51
90.000000
  0
ARC
  8
2
 10
-466.803820
 20
345.383078
 40
22.500000
 50
252.077777
 51
288.988889
  0
ARC
  8
2
 10
-472.803820
 20
326.833078
 40
3.000000
 50
177.577778
 51
252.077777
  0
ARC
  8
2
 10
-460.453820
 20
326.933078
 40
3.000000
 50
288.988889
 51
1.533333
  0
ARC
  8
2
 10
-447.253820
 20
325.333078
 40
14.050000
 50
9.433333
 51
35.366667
  0
ARC
  8
2
 10
-440.703820
 20
329.983078
 40
6.000000
 50
35.366667
 51
121.100000
  0
ARC
  8
2
 10
-470.203820
 20
324.583078
 40
19.750000
 50
5.800000
 51
29.744444
  0
ARC
  8
2
 10
-455.653820
 20
332.883078
 40
3.000000
 50
29.700000
 51
90.000000
  0
ARC
  8
2
 10
-448.303820
 20
342.583078
 40
8.700000
 50
238.566666
 51
301.100000
  0
ARC
  8
2
 10
-455.453820
 20
330.883078
 40
5.000000
 50
58.566667
 51
90.000000
  0
ARC
  8
2
 10
-442.253820
 20
340.733078
 40
17.850000
 50
249.055555
 51
293.455555
  0
ARC
  8
2
 10
-447.553820
 20
326.883078
 40
3.000000
 50
185.800000
 51
249.055555
  0
ARC
  8
2
 10
-436.353820
 20
327.133078
 40
3.000000
 50
293.455555
 51
9.377778
  0
ARC
  8
2
 10
-429.203820
 20
323.933078
 40
15.650000
 50
11.844444
 51
38.388889
  0
ARC
  8
2
 10
-445.853820
 20
322.883078
 40
18.850000
 50
10.277778
 51
35.288889
  0
ARC
  8
2
 10
-434.553820
 20
330.883078
 40
5.000000
 50
35.300000
 51
90.000000
  0
ARC
  8
2
 10
-428.253820
 20
340.733078
 40
6.850000
 50
245.488889
 51
302.244444
  0
ARC
  8
2
 10
-421.503820
 20
330.033078
 40
5.800000
 50
38.388889
 51
122.244444
  0
ARC
  8
2
 10
-420.303820
 20
335.383078
 40
12.500000
 50
244.777777
 51
291.577777
  0
ARC
  8
2
 10
-416.803820
 20
326.533078
 40
3.000000
 50
291.577777
 51
11.844444
  0
ARC
  8
2
 10
-424.353820
 20
326.783078
 40
3.000000
 50
190.277778
 51
244.777777
  0
ARC
  8
2
 10
-406.353820
 20
329.883078
 40
6.000000
 50
41.344444
 51
125.144444
  0
ARC
  8
2
 10
-422.503820
 20
325.433078
 40
13.400000
 50
3.677778
 51
40.411111
  0
ARC
  8
2
 10
-416.103820
 20
330.883078
 40
5.000000
 50
40.411111
 51
90.000000
  0
ARC
  8
2
 10
-412.653820
 20
338.833078
 40
4.950000
 50
276.400000
 51
305.144444
  0
ARC
  8
2
 10
-403.703820
 20
331.183078
 40
8.300000
 50
242.466666
 51
295.111111
  0
ARC
  8
2
 10
-401.453820
 20
326.383078
 40
3.000000
 50
295.111111
 51
10.166667
  0
ARC
  8
2
 10
-406.153820
 20
326.483078
 40
3.000000
 50
183.677778
 51
242.466666
  0
ARC
  8
2
 10
-400.753820
 20
325.483078
 40
12.450000
 50
357.177777
 51
54.777778
  0
ARC
  8
2
 10
-394.153820
 20
334.833078
 40
1.000000
 50
54.777778
 51
143.677778
  0
ARC
  8
2
 10
-406.703820
 20
325.383078
 40
12.700000
 50
357.822222
 51
45.522222
  0
ARC
  8
2
 10
-401.303820
 20
330.883078
 40
5.000000
 50
45.522222
 51
90.000000
  0
ARC
  8
2
 10
-391.153820
 20
325.883078
 40
3.000000
 50
198.777778
 51
340.233333
  0
ARC
  8
2
 10
-399.253820
 20
338.583078
 40
5.300000
 50
293.411111
 51
323.777777
  0
ARC
  8
2
 10
-532.653820
 20
322.883078
 40
20.000000
 50
139.455555
 51
146.822222
  0
ARC
  8
2
 10
-513.053820
 20
322.883078
 40
20.000000
 50
33.177778
 51
40.544444
  0
LINE
  8
2
 10
-502.853820
 20
307.883078
 11
-542.853820
 21
307.883078
  0
LINE
  8
2
 10
-542.853820
 20
307.883078
 11
-542.853820
 21
309.883078
  0
LINE
  8
2
 10
-502.853820
 20
307.883078
 11
-502.853820
 21
309.883078
  0
LINE
  8
2
 10
-530.853820
 20
305.883078
 11
-514.853820
 21
305.883078
  0
LINE
  8
2
 10
-515.153820
 20
307.883078
 11
-515.153820
 21
305.883078
  0
LINE
  8
2
 10
-530.553820
 20
305.883078
 11
-530.553820
 21
307.883078
  0
LINE
  8
2
 10
-522.853820
 20
305.883078
 11
-523.353820
 21
307.883078
  0
LINE
  8
2
 10
-522.853820
 20
307.883078
 11
-522.353820
 21
305.883078
  0
LINE
  8
2
 10
-514.853820
 20
305.883078
 11
-514.853820
 21
303.663534
  0
LINE
  8
2
 10
-530.853820
 20
305.883078
 11
-530.853820
 21
303.663534
  0
ARC
  8
2
 10
-522.853820
 20
312.883078
 40
13.000000
 50
236.944269
 51
303.055731
  0
ARC
  8
2
 10
-516.853820
 20
303.663534
 40
2.000000
 50
303.055731
 51
360.000000
  0
ARC
  8
2
 10
-528.853820
 20
303.663534
 40
2.000000
 50
180.000000
 51
236.944269
  0
TEXT
  8
5
 10
658.180344
 20
309.067039
 40
30.000000
  1
（コントロールユニット付）
 50
0.000000
  0
TEXT
  8
5
 10
478.180344
 20
351.067039
 40
30.000000
  1
駆動部・・・４Ｉ－４型
 50
0.000000
  0
DIMENSION
  8
5
  2
*D0
 10
-621.353820
 20
730.047249
 11
-732.853820
 21
742.947249
 70
0
  1
223
 13
-844.353820
 23
630.383078
 14
-621.353820
 24
682.631605
 50
0.000000
  0
DIMENSION
  8
5
  2
*D1
 10
-456.353820
 20
730.047249
 11
-538.853820
 21
742.947249
 70
0
  1
165
 13
-621.353820
 23
682.631605
 14
-456.353820
 24
454.383078
 50
0.000000
  0
DIMENSION
  8
5
  2
*D2
 10
319.865313
 20
195.399473
 11
296.075313
 21
66.909473
 70
0
  1
255
 13
185.506389
 23
-59.600527
 14
115.506389
 24
195.399473
 50
90.000000
  0
DIMENSION
  8
5
  2
*D3
 10
-195.674681
 20
-101.600527
 11
-226.394680
 21
30.479473
 70
1
  1
%%c280
 13
-106.993611
 23
178.399473
 14
-106.993611
 24
-101.600527
 50
90.000000
  0
DIMENSION
  8
5
  2
*D4
 10
319.865313
 20
-59.600527
 11
296.075313
 21
-240.590527
 70
0
  1
360
 13
203.170019
 23
-419.600527
 14
185.506389
 24
-59.600527
 50
90.000000
  0
DIMENSION
  8
5
  2
*D5
 10
319.865313
 20
-419.600527
 11
296.075313
 21
-580.590527
 70
0
  1
320
 13
120.559389
 23
-739.600527
 14
203.170019
 24
-419.600527
 50
90.000000
  0
DIMENSION
  8
5
  2
*D6
 10
-294.703377
 20
681.383078
 11
-318.493377
 21
612.393078
 70
0
  1
136
 13
-364.682653
 23
545.383078
 14
-564.436320
 24
681.383078
 50
90.000000
  0
DIMENSION
  8
5
  2
*D7
 10
-294.703377
 20
545.383078
 11
-332.353376
 21
407.783078
 70
0
  1
245.5
 13
-522.853820
 23
299.883078
 14
-364.682653
 24
545.383078
 50
90.000000
  0
DIMENSION
  8
5
  2
*D8
 10
161.506389
 20
-791.397217
 11
115.506389
 21
-778.497217
 70
0
  1
92
 13
69.506389
 23
-627.189770
 14
161.506389
 24
-627.189770
 50
0.000000
  0
TEXT
  8
18
 10
735.300476
 20
-799.742523
 40
18.000000
  1
１
 50
0.000000
  0
LINE
  8
18
 10
-14.179324
 20
-419.600527
 11
-194.179324
 21
-419.600527
  0
LINE
  8
18
 10
-14.179324
 20
-419.600527
 11
-74.179324
 21
-403.523576
  0
LINE
  8
18
 10
-74.179324
 20
-403.523576
 11
-74.179324
 21
-435.677479
  0
LINE
  8
18
 10
-14.179324
 20
-419.600527
 11
-74.179324
 21
-435.677479
  0
TEXT
  8
18
 10
-180.838233
 20
-414.473971
 40
24.000000
  1
流れ方向
 50
0.000000
  0
LINE
  8
18
 10
412.042007
 20
690.555588
 11
412.042007
 21
480.555588
  0
LINE
  8
18
 10
1084.042007
 20
540.555588
 11
412.042007
 21
540.555588
  0
LINE
  8
18
 10
1084.042007
 20
510.555588
 11
412.042007
 21
510.555588
  0
LINE
  8
18
 10
1084.042007
 20
480.555588
 11
412.042007
 21
480.555588
  0
LINE
  8
18
 10
580.042007
 20
690.555588
 11
580.042007
 21
510.555588
  0
LINE
  8
18
 10
748.042007
 20
690.555588
 11
748.042007
 21
510.555588
  0
LINE
  8
18
 10
916.042007
 20
690.555588
 11
916.042007
 21
510.555588
  0
LINE
  8
18
 10
1084.042007
 20
690.555588
 11
1084.042007
 21
480.555588
  0
LINE
  8
18
 10
412.042007
 20
690.555588
 11
1084.042007
 21
690.555588
  0
POLYLINE
  8
18
 62
2
 66
1
 70
0
 40
0.000000
 41
0.000000
  0
VERTEX
  8
18
 62
2
 10
489.860973
 20
597.219706
 40
0.000000
 41
0.000000
 42
0.000000
 70
0
  0
VERTEX
  8
18
 62
2
 10
489.860973
 20
569.991551
 40
0.000000
 41
0.000000
 42
0.000000
 70
0
  0
SEQEND
  8
18
 62
2
  0
LINE
  8
18
 62
2
 10
489.860973
 20
585.628596
 11
492.966802
 21
585.628596
  0
LINE
  8
18
 62
2
 10
492.966802
 20
585.628596
 11
489.860973
 21
597.219706
  0
LINE
  8
18
 62
2
 10
489.860973
 20
597.219706
 11
486.755145
 21
585.628596
  0
LINE
  8
18
 62
2
 10
486.755145
 20
585.628596
 11
489.860973
 21
585.628596
  0
TEXT
  8
18
 10
484.826431
 20
517.622864
 40
18.000000
  1
Ａ
 50
0.000000
  0
TEXT
  8
18
 10
652.754745
 20
517.141937
 40
18.000000
  1
Ｂ
 50
0.000000
  0
TEXT
  8
18
 10
820.826431
 20
517.622864
 40
18.000000
  1
Ｃ
 50
0.000000
  0
TEXT
  8
18
 10
651.792938
 20
486.981417
 40
18.000000
  1
アクチュエ－タ取付方向
 50
0.000000
  0
TEXT
  8
18
 10
988.826431
 20
517.622864
 40
18.000000
  1
Ｄ
 50
0.000000
  0
TEXT
  8
18
 10
462.096375
 20
546.829285
 40
18.000000
  1
一次側
 50
0.000000
  0
TEXT
  8
18
 10
462.096375
 20
666.829285
 40
18.000000
  1
二次側
 50
0.000000
  0
TEXT
  8
18
 10
737.125443
 20
-762.211578
 40
18.000000
  1
ＪＩＳ　１０，１６Ｋ
 50
0.000000
  0
LINE
  8
18
  6
CENTER
 62
2
 10
550.566854
 20
622.315370
 11
446.966570
 21
622.315370
  0
LINE
  8
18
  6
CENTER
 62
2
 10
497.799026
 20
594.418886
 11
497.799026
 21
653.576163
  0
LINE
  8
18
 10
540.999026
 20
603.415370
 11
459.999026
 21
603.415370
  0
LINE
  8
18
 10
540.999026
 20
641.215370
 11
459.999026
 21
641.215370
  0
LINE
  8
18
 10
540.999026
 20
603.415370
 11
540.999026
 21
646.615370
  0
LINE
  8
18
 10
465.399026
 20
603.415370
 11
465.399026
 21
641.215370
  0
LINE
  8
18
 10
540.999026
 20
646.615370
 11
468.999026
 21
646.615370
  0
LINE
  8
18
 10
459.999026
 20
603.415370
 11
459.999026
 21
641.215370
  0
LINE
  8
18
 10
468.999026
 20
641.215370
 11
468.999026
 21
646.615370
  0
LINE
  8
18
 10
516.699026
 20
606.115370
 11
516.699026
 21
638.515370
  0
LINE
  8
18
 10
470.799026
 20
606.115370
 11
470.799026
 21
638.515370
  0
LINE
  8
18
 10
516.699026
 20
606.115370
 11
470.799026
 21
606.115370
  0
LINE
  8
18
 10
516.699026
 20
638.515370
 11
470.799026
 21
638.515370
  0
CIRCLE
  8
18
 10
497.799026
 20
622.315370
 40
6.480000
  0
LINE
  8
18
  6
DASHED
 10
527.499026
 20
611.515370
 11
468.099026
 21
611.515370
  0
LINE
  8
18
  6
DASHED
 10
527.499026
 20
633.115370
 11
468.099026
 21
633.115370
  0
LINE
  8
18
  6
DASHED
 10
468.099026
 20
611.515370
 11
468.099026
 21
633.115370
  0
LINE
  8
18
  6
DASHED
 10
527.499026
 20
611.515370
 11
527.499026
 21
633.115370
  0
LINE
  8
18
  6
CENTER
 62
2
 10
483.399026
 20
643.785398
 11
483.399026
 21
663.342133
  0
LINE
  8
18
 10
483.399348
 20
654.715370
 11
493.966826
 21
654.715370
  0
LINE
  8
18
 10
493.966826
 20
654.715370
 11
493.966826
 21
657.415370
  0
LINE
  8
18
 10
483.399348
 20
657.415370
 11
493.966826
 21
657.415370
  0
LINE
  8
18
 10
472.831870
 20
654.715370
 11
472.831870
 21
657.415370
  0
LINE
  8
18
 10
492.034920
 20
646.615370
 11
488.257828
 21
654.715370
  0
LINE
  8
18
 10
474.763776
 20
646.615370
 11
478.540868
 21
654.715370
  0
LINE
  8
18
 10
483.399348
 20
654.715370
 11
472.831870
 21
654.715370
  0
LINE
  8
18
 10
483.399348
 20
657.415370
 11
472.831870
 21
657.415370
  0
LINE
  8
18
  6
CENTER
 62
2
 10
659.935394
 20
557.568828
 11
659.935394
 21
661.169112
  0
LINE
  8
18
  6
CENTER
 62
2
 10
620.272339
 20
610.336656
 11
698.485062
 21
610.336656
  0
LINE
  8
18
 10
641.035394
 20
567.136656
 11
641.035394
 21
648.136656
  0
LINE
  8
18
 10
678.835394
 20
567.136656
 11
678.835394
 21
648.136656
  0
LINE
  8
18
 10
641.035394
 20
567.136656
 11
684.235394
 21
567.136656
  0
LINE
  8
18
 10
641.035394
 20
642.736656
 11
678.835394
 21
642.736656
  0
LINE
  8
18
 10
684.235394
 20
567.136656
 11
684.235394
 21
639.136656
  0
LINE
  8
18
 10
641.035394
 20
648.136656
 11
678.835394
 21
648.136656
  0
LINE
  8
18
 10
678.835394
 20
639.136656
 11
684.235394
 21
639.136656
  0
LINE
  8
18
 10
643.735394
 20
591.436656
 11
676.135394
 21
591.436656
  0
LINE
  8
18
 10
643.735394
 20
637.336656
 11
676.135394
 21
637.336656
  0
LINE
  8
18
 10
643.735394
 20
591.436656
 11
643.735394
 21
637.336656
  0
LINE
  8
18
 10
676.135394
 20
591.436656
 11
676.135394
 21
637.336656
  0
CIRCLE
  8
18
 10
659.935394
 20
610.336656
 40
6.480000
  0
LINE
  8
18
 10
630.235394
 20
599.536656
 11
630.235394
 21
621.136656
  0
LINE
  8
18
  6
CENTER
 62
2
 10
681.405422
 20
624.736656
 11
700.962156
 21
624.736656
  0
LINE
  8
18
 10
692.335394
 20
624.736334
 11
692.335394
 21
614.168856
  0
LINE
  8
18
 10
692.335394
 20
614.168856
 11
695.035394
 21
614.168856
  0
LINE
  8
18
 10
695.035394
 20
624.736334
 11
695.035394
 21
614.168856
  0
LINE
  8
18
 10
692.335394
 20
635.303812
 11
695.035394
 21
635.303812
  0
LINE
  8
18
 10
684.235394
 20
616.100762
 11
692.335394
 21
619.877854
  0
LINE
  8
18
 10
684.235394
 20
633.371906
 11
692.335394
 21
629.594814
  0
LINE
  8
18
 10
692.335394
 20
624.736334
 11
692.335394
 21
635.303812
  0
LINE
  8
18
 10
695.035394
 20
624.736334
 11
695.035394
 21
635.303812
  0
LINE
  8
18
  6
DASHED
 10
689.635394
 20
621.136656
 11
641.035394
 21
621.136656
  0
LINE
  8
18
 10
641.035394
 20
621.136656
 11
630.235394
 21
621.136656
  0
LINE
  8
18
 10
641.035394
 20
599.536656
 11
630.235394
 21
599.536656
  0
LINE
  8
18
 10
689.635394
 20
599.536656
 11
684.235394
 21
599.536656
  0
LINE
  8
18
  6
DASHED
 10
684.235394
 20
599.536656
 11
641.035394
 21
599.536656
  0
LINE
  8
18
 10
689.635394
 20
599.536656
 11
689.635394
 21
618.618823
  0
LINE
  8
18
  6
DASHED
 10
689.635394
 20
618.618823
 11
689.635394
 21
621.136656
  0
LINE
  8
18
  6
CENTER
 62
2
 10
775.167565
 20
610.336656
 11
878.767850
 21
610.336656
  0
LINE
  8
18
  6
CENTER
 62
2
 10
827.935394
 20
638.233141
 11
827.935394
 21
579.075863
  0
LINE
  8
18
 10
784.735394
 20
629.236656
 11
865.735394
 21
629.236656
  0
LINE
  8
18
 10
784.735394
 20
591.436656
 11
865.735394
 21
591.436656
  0
LINE
  8
18
 10
784.735394
 20
629.236656
 11
784.735394
 21
586.036656
  0
LINE
  8
18
 10
860.335394
 20
629.236656
 11
860.335394
 21
591.436656
  0
LINE
  8
18
 10
784.735394
 20
586.036656
 11
856.735394
 21
586.036656
  0
LINE
  8
18
 10
865.735394
 20
629.236656
 11
865.735394
 21
591.436656
  0
LINE
  8
18
 10
856.735394
 20
591.436656
 11
856.735394
 21
586.036656
  0
LINE
  8
18
 10
809.035394
 20
626.536656
 11
809.035394
 21
594.136656
  0
LINE
  8
18
 10
854.935394
 20
626.536656
 11
854.935394
 21
594.136656
  0
LINE
  8
18
 10
809.035394
 20
626.536656
 11
854.935394
 21
626.536656
  0
LINE
  8
18
 10
809.035394
 20
594.136656
 11
854.935394
 21
594.136656
  0
CIRCLE
  8
18
 10
827.935394
 20
610.336656
 40
6.480000
  0
LINE
  8
18
  6
DASHED
 10
798.235394
 20
621.136656
 11
857.635394
 21
621.136656
  0
LINE
  8
18
  6
DASHED
 10
798.235394
 20
599.536656
 11
857.635394
 21
599.536656
  0
LINE
  8
18
  6
DASHED
 10
857.635394
 20
621.136656
 11
857.635394
 21
599.536656
  0
LINE
  8
18
  6
DASHED
 10
798.235394
 20
621.136656
 11
798.235394
 21
599.536656
  0
LINE
  8
18
  6
CENTER
 62
2
 10
842.335394
 20
588.866628
 11
842.335394
 21
569.309894
  0
LINE
  8
18
 10
842.335071
 20
577.936656
 11
831.767594
 21
577.936656
  0
LINE
  8
18
 10
831.767594
 20
577.936656
 11
831.767594
 21
575.236656
  0
LINE
  8
18
 10
842.335071
 20
575.236656
 11
831.767594
 21
575.236656
  0
LINE
  8
18
 10
852.902549
 20
577.936656
 11
852.902549
 21
575.236656
  0
LINE
  8
18
 10
833.699499
 20
586.036656
 11
837.476592
 21
577.936656
  0
LINE
  8
18
 10
850.970643
 20
586.036656
 11
847.193551
 21
577.936656
  0
LINE
  8
18
 10
842.335071
 20
577.936656
 11
852.902549
 21
577.936656
  0
LINE
  8
18
 10
842.335071
 20
575.236656
 11
852.902549
 21
575.236656
  0
LINE
  8
18
  6
CENTER
 62
2
 10
995.935394
 20
663.104485
 11
995.935394
 21
559.504200
  0
LINE
  8
18
  6
CENTER
 62
2
 10
1035.598448
 20
610.336656
 11
957.385725
 21
610.336656
  0
LINE
  8
18
 10
1014.835394
 20
653.536656
 11
1014.835394
 21
572.536656
  0
LINE
  8
18
 10
977.035394
 20
653.536656
 11
977.035394
 21
572.536656
  0
LINE
  8
18
 10
1014.835394
 20
653.536656
 11
971.635394
 21
653.536656
  0
LINE
  8
18
 10
1014.835394
 20
577.936656
 11
977.035394
 21
577.936656
  0
LINE
  8
18
 10
971.635394
 20
653.536656
 11
971.635394
 21
581.536656
  0
LINE
  8
18
 10
1014.835394
 20
572.536656
 11
977.035394
 21
572.536656
  0
LINE
  8
18
 10
977.035394
 20
581.536656
 11
971.635394
 21
581.536656
  0
LINE
  8
18
 10
1012.135394
 20
629.236656
 11
979.735394
 21
629.236656
  0
LINE
  8
18
 10
1012.135394
 20
583.336656
 11
979.735394
 21
583.336656
  0
LINE
  8
18
 10
1012.135394
 20
629.236656
 11
1012.135394
 21
583.336656
  0
LINE
  8
18
 10
979.735394
 20
629.236656
 11
979.735394
 21
583.336656
  0
CIRCLE
  8
18
 10
995.935394
 20
610.336656
 40
6.480000
  0
LINE
  8
18
 10
1025.635394
 20
621.136656
 11
1025.635394
 21
599.536656
  0
LINE
  8
18
  6
CENTER
 62
2
 10
974.465365
 20
595.936656
 11
954.908631
 21
595.936656
  0
LINE
  8
18
 10
963.535394
 20
595.936978
 11
963.535394
 21
606.504456
  0
LINE
  8
18
 10
963.535394
 20
606.504456
 11
960.835394
 21
606.504456
  0
LINE
  8
18
 10
960.835394
 20
595.936978
 11
960.835394
 21
606.504456
  0
LINE
  8
18
 10
963.535394
 20
585.369501
 11
960.835394
 21
585.369501
  0
LINE
  8
18
 10
971.635394
 20
604.572550
 11
963.535394
 21
600.795458
  0
LINE
  8
18
 10
971.635394
 20
587.301407
 11
963.535394
 21
591.078499
  0
LINE
  8
18
 10
963.535394
 20
595.936978
 11
963.535394
 21
585.369501
  0
LINE
  8
18
 10
960.835394
 20
595.936978
 11
960.835394
 21
585.369501
  0
LINE
  8
18
  6
DASHED
 10
966.235394
 20
599.536656
 11
1014.835394
 21
599.536656
  0
LINE
  8
18
 10
1014.835394
 20
599.536656
 11
1025.635394
 21
599.536656
  0
LINE
  8
18
 10
1014.835394
 20
621.136656
 11
1025.635394
 21
621.136656
  0
LINE
  8
18
 10
966.235394
 20
621.136656
 11
971.635394
 21
621.136656
  0
LINE
  8
18
  6
DASHED
 10
971.635394
 20
621.136656
 11
1014.835394
 21
621.136656
  0
LINE
  8
18
 10
966.235394
 20
621.136656
 11
966.235394
 21
602.054489
  0
LINE
  8
18
  6
DASHED
 10
966.235394
 20
602.054489
 11
966.235394
 21
599.536656
  0
TEXT
  8
18
 10
1080.948669
 20
-761.314819
 40
12.000000
  1
２００２．１１．１８
 50
0.000000
  0
TEXT
  8
18
 10
758.676086
 20
-821.673157
 40
18.000000
  1
６
 50
0.000000
  0
TEXT
  8
18
 10
921.600000
 20
-816.000000
 40
30.000000
  1
Ｄ３－０３１０７
 50
0.000000
  0
TEXT
  8
18
 10
737.125443
 20
-738.211578
 40
18.000000
  1
５０８Ｖ－４ＩＣＳ　３５０Ａ
 50
0.000000
  0
LINE
  8
20
 62
3
 10
-1080.000000
 20
-831.000000
 11
1200.000000
 21
-831.000000
  0
LINE
  8
20
 62
3
 10
-1080.000000
 20
792.000000
 11
1200.000000
 21
792.000000
  0
LINE
  8
20
 62
3
 10
-1080.000000
 20
792.000000
 11
-1080.000000
 21
-831.000000
  0
LINE
  8
20
 62
3
 10
1200.000000
 20
792.000000
 11
1200.000000
 21
-831.000000
  0
LINE
  8
20
 62
3
 10
360.000000
 20
-831.000000
 11
360.000000
 21
-711.000000
  0
LINE
  8
20
 62
3
 10
642.000000
 20
-831.000000
 11
642.000000
 21
-711.000000
  0
LINE
  8
20
 10
642.000000
 20
-771.000000
 11
1200.000000
 21
-771.000000
  0
LINE
  8
20
 62
3
 10
360.000000
 20
-711.000000
 11
1200.000000
 21
-711.000000
  0
LINE
  8
20
 10
1080.000000
 20
-771.000000
 11
1080.000000
 21
-711.000000
  0
LINE
  8
20
 10
1080.000000
 20
-741.000000
 11
1200.000000
 21
-741.000000
  0
LINE
  8
20
 10
726.000000
 20
-831.000000
 11
726.000000
 21
-711.000000
  0
LINE
  8
20
 10
786.000000
 20
-831.000000
 11
786.000000
 21
-771.000000
  0
LINE
  8
20
 10
906.000000
 20
-831.000000
 11
906.000000
 21
-771.000000
  0
LINE
  8
20
 10
742.370487
 20
-814.629513
 11
767.389744
 21
-789.610256
  0
TEXT
  8
20
 10
789.199974
 20
-794.981506
 40
10.800000
  1
ＤＲＡＷＩＮＧ　ＮＯ．
 50
0.000000
  0
TEXT
  8
20
 10
801.000000
 20
-819.000000
 40
18.000000
  1
図　　　番
 50
0.000000
  0
TEXT
  8
20
 10
1116.000000
 20
-732.000000
 40
12.000000
  1
ＤＡＴＥ
 50
0.000000
  0
TEXT
  8
20
 10
654.006426
 20
-797.766174
 40
12.000000
  1
ＳＣＡＬＥ
 50
0.000000
  0
TEXT
  8
20
 10
648.000000
 20
-819.000000
 40
18.000000
  1
尺　　度
 50
0.000000
  0
TEXT
  8
20
 10
645.006426
 20
-734.975308
 40
12.000000
  1
ＦＩＧ．ＮＯ．
 50
0.000000
  0
TEXT
  8
20
 10
648.000000
 20
-759.000000
 40
18.000000
  1
名　　称
 50
0.000000
  0
TEXT
  8
20
 10
363.393150
 20
-758.821518
 40
13.800000
  1
ＴＯＭＯＥ　ＶＡＬＶＥ　ＣＯ．，ＬＴＤ．
 50
0.000000
  0
TEXT
  8
20
 10
405.000000
 20
-799.738861
 40
24.000000
  1
巴バルブ株式会社
 50
0.000000
  0
ENDSEC
  0
EOF
